コドモライブ
onoken feat.asami

BASIC

Level: 3
BPM: 140-146
Notes: 228

1
口口口口 |----|
口口口口 |----|
口口口口 |----|
口口口口 |----|
2
口口口口 |①---|
口①②口 |----|
口口口口 |②---|
口口口口 |----|
3
口口口口 |①---|
口口口口 |②---|
口①②③ |③---|
口口口口 |----|
4
口口口口 |①---|
口①②口 |----|
口口口口 |②---|
口口口口 |----|
5
口口口口 |①---|
口口口口 |②---|
口②②口
口①①口
6
口③③口 |①---|
①口口① |②---|
口④④口 |③---|
②口口② |④---|
7
口口口口 |①---|
口①②③ |②---|
口口口口 |③---|
口口口口 |----|
8
口①①口 |①---|
③口口③ |②---|
口②②口 |③---|
④口口④ |④---|
9
口口口口 |①---|
口③口口 |②---|
口口②口 |③---|
口①口口 |----|
10
口③③口 |①---|
①口口① |②---|
口④④口 |③---|
②口口② |④---|
11
口口口口 |①---|
口①②③ |②---|
口口口口 |③---|
口口口口 |----|
12
口①①口 |①---|
③口口③ |②---|
口②②口 |③---|
④口口④ |④---|
13
口口口口 |①---|
口③口口 |②---|
口口②口 |③---|
口①口口 |----|
14
①②③④ |①---|
口口口口 |②---|
口口口口 |③---|
口口口口 |④---|
15
口口口口 |①---|
口口口口 |②---|
①②③④ |③---|
口口口口 |④---|
16
口口口口 |①---|
①①②② |----|
口口口口 |②---|
口口口口 |----|
17
口口口口 |①---|
口口口口 |②---|
口②口④ |③---|
①口③口 |④---|
18
口口口口 |①---|
①①②② |----|
口口口口 |②---|
口口口口 |----|
19
口口口口 |①---|
口口口口 |②---|
④口②口 |③---|
口③口① |④---|
20
口口口口 |①---|
②②①① |----|
口口口口 |②---|
口口口口 |----|
21
口口口口 |①---|
口口口口 |②---|
口②口④ |③---|
①口③口 |④---|
22
口口口口 |①---|
口①②口 |----|
口口口口 |②---|
口口口口 |----|
23
①口口① |①---|
②口口② |②---|
③口口③ |③---|
④口口④ |④---|
24
口口口口 |①---|
①①②② |----|
口口口口 |②---|
口口口口 |----|
25
口口口口 |①---|
口口口口 |②---|
口②口口 |③---|
①口③口 |----|
26
口口口口 |①---|
②②①① |----|
口口口口 |②---|
口口口口 |----|
27
口口口口 |①---|
口口口口 |②---|
口口②口 |③---|
口③口① |----|
28
口口口口 |①---|
①①②② |----|
口口口口 |②---|
口口口口 |----|
29
口口④口 |①---|
口③口口 |②---|
口口②口 |③---|
口①口口 |④---|
30
①口口口 |①---|
口口口② |②---|
③口口口 |③---|
口口口④ |④---|
31
口口口口 |①---|
口口口口 |----|
口①口口 |----|
口口口口 |----|
32
口口口口 |①---|
口口口口 |----|
口口口口 |②---|
①口口② |----|
33
口③口口 |①---|
口口②口 |②---|
口①口口 |③---|
口口口口 |----|
34
③口口③ |①---|
口①①口 |②---|
④口口④ |③---|
口②②口 |④---|
35
口口口口 |①---|
口①②③ |②---|
口口口口 |③---|
口口口口 |----|
36
口①①口 |①---|
③口口③ |②---|
口②②口 |③---|
④口口④ |④---|
37
口口口口 |①---|
口口口口 |②---|
口①②③ |③---|
口口口口 |----|
38
口③③口 |①---|
①口口① |②---|
口④④口 |③---|
②口口② |④---|
39
口口口口 |①---|
口①②口 |②---|
口口口口
口口口口
40
口口口口 |①---|
口口口① |----|
②②口口 |②---|
口口口口 |----|
41
②②口口 |①---|
口口①① |----|
口口口口 |②---|
口口口口 |----|
42
口口①① |①---|
②②口口 |----|
口口口口 |②---|
口口口口 |----|
43
口口口口 |①---|
口口口口 |----|
口口①① |②---|
②②口口 |----|
44
口口口口 |①---|
口口口口 |②---|
口④③口 |③---|
口②①口 |④---|
45
口④③口 |①---|
口②①口 |②---|
口口口口 |③---|
口口口口 |④---|
46
②口口① |①---|
④口口③ |②---|
口口口口 |③---|
口口口口 |④---|
47
口口口口 |①---|
口口口口 |②---|
②口口① |③---|
④口口③ |④---|
48
口口口口 |①---|
口口口口 |----|
口②①口 |②---|
口口口口 |----|
49
口口口口 |①---|
口②①口 |----|
口口口口 |②---|
口口口口 |----|
50
口口口口 |①---|
口口口口 |----|
②口口① |②---|
口口口口 |----|
51
口口口口 |①---|
②口口① |----|
口口口口 |②---|
口口口口 |----|
52
口口口口 |①---|
口口口口 |②---|
口③④口 |③---|
口①②口 |④---|
53
口③④口 |①---|
口①②口 |②---|
口口口口 |③---|
口口口口 |④---|
54
口口口口 |----|
①②③口 |①---|
口口口口 |②---|
口口口口 |③---|
55
口口口口 |①---|
口口口① |----|
口口口口 |----|
口口口口 |----|
56
口口口口 |①---|
口口口口 |----|
口①②口 |②---|
口口口口 |----|
57
③口口③ |①---|
口①①口 |②---|
④口口④ |③---|
口②②口 |④---|
58
口口口口 |①---|
口③③口 |②---|
口②②口 |③---|
口①①口 |----|

不確定度: 0

最終更新:2015年05月07日 21:56