Ha・lle・lu・jah
SOUND HOLIC feat. Nana Takahashi

BASIC

Level: 3
BPM: 150
Notes: 216

1
口口口口 |----|
口口口口 |----|
口口口口 |----|
口口口口 |----|
2
口口口口 |①---|
②口口② |----|
口口口口 |②---|
①口口① |----|
3
口③口口 |①---|
口②口口 |②---|
口①口口 |③---|
口口口口 |----|
4
口口口口 |①---|
口口口口 |----|
口口①① |②---|
②②口口 |----|
5
口口③口 |①---|
口口②口 |②---|
口口①口 |③---|
口口口口 |----|
6
口口口口 |----|
口口口口 |----|
口口口口 |----|
口口口口 |----|
7
①②口口 |①---|
④③口口 |②---|
口口口口 |③---|
口口口口 |④---|
8
口口口口 |①---|
口口口口 |②---|
①②口口 |③---|
④③口口 |④---|
9
口口②① |①---|
口口③④ |②---|
口口口口 |③---|
口口口口 |④---|
10
口口口口 |①---|
口口口口 |②---|
口口②① |③---|
口口③④ |④---|
11
②①口口 |①---|
③④口口 |②---|
口口口口 |③---|
口口口口 |④---|
12
口口口口 |①---|
口口口口 |②---|
②①口口 |③---|
③④口口 |④---|
13
口口①② |①---|
口口④③ |②---|
口口口口 |③---|
口口口口 |④---|
14
口口口口 |①---|
口口口口 |②---|
口口①② |③---|
口口④③ |④---|
15
口③口口 |①---|
②口口口 |②---|
口①④口 |③---|
口口口口 |④---|
16
口口②口 |①---|
口③④① |②---|
口口口口 |③---|
口口口口 |④---|
17
口口口口 |①---|
口口口口 |----|
口①口口 |②---|
口口②口 |----|
18
口口口口 |①---|
口口口口 |----|
口口②口 |②---|
口①口口 |----|
19
口③口口 |①---|
②口口口 |②---|
口①④口 |③---|
口口口口 |④---|
20
口口②口 |①---|
口③④① |②---|
口口口口 |③---|
口口口口 |④---|
21
口口口口 |①---|
口口口口 |----|
口①口口 |②---|
口口②口 |----|
22
口口口口 |①---|
口口口口 |----|
口口口① |----|
口口口口 |----|
23
口④口口 |①---|
口③口口 |②---|
②口口口 |③---|
①口口口 |④---|
24
口口④口 |①---|
口口③口 |②---|
口口口② |③---|
口口口① |④---|
25
④口口口 |①---|
③口口口 |②---|
口②口口 |③---|
口①口口 |④---|
26
口口口④ |①---|
口口口③ |②---|
口口②口 |③---|
口口①口 |④---|
27
④口口口 |①---|
口③口口 |②---|
②口口口 |③---|
口①口口 |④---|
28
口口口④ |①---|
口口③口 |②---|
口口口② |③---|
口口①口 |④---|
29
口口口口 |①---|
口②②口 |----|
口①①口 |②---|
口口口口 |----|
30
①口口① |①---|
口②口口 |----|
口口③口 |②---|
口口口口 |③---|
31
口口口口 |①---|
口口口② |----|
口口口口 |②---|
口口口① |----|
32
口口口① |①---|
口口②口 |----|
口③口口 |②---|
口口口口 |③---|
33
口口口口 |①---|
②口口口 |----|
口口口口 |②---|
①口口口 |----|
34
①口口口 |①---|
口口②口 |----|
口口口口 |----|
口口口口 |②---|
35
口口口口 |①---|
口②口口 |----|
口①口口 |----|
口口口口 |②---|
36
口口口口 |①---|
口②口口 |----|
口口①口 |②---|
口口口口 |----|
37
口口口口 |①---|
口口口口 |----|
口②②口 |②---|
口口①口 |----|
38
②②②② |①---|
①①①口 |----|
口口口口 |②---|
口口口口 |----|
39
口口口口 |----|
口口口口 |----|
口口口口
口口口口
40
口口口口 |①---|
口③①口 |②---|
口②④口 |③---|
口口口口 |④---|
41
口③①口 |①---|
口口口口 |②---|
④口口② |③---|
口口口口 |④---|
42
口口口口 |①---|
口③①口 |②---|
口②④口 |③---|
口口口口 |④---|
43
口口口口 |①---|
口口③口 |②---|
口②口口 |③---|
①口口口 |----|
44
口口口口 |①---|
口①③口 |②---|
口④②口 |③---|
口口口口 |④---|
45
口①③口 |①---|
口口口口 |②---|
②口口④ |③---|
口口口口 |④---|
46
口口口口 |①---|
口①③口 |②---|
口④②口 |③---|
口口口口 |④---|
47
口口口口 |①---|
口③口口 |②---|
口口②口 |③---|
口口口① |----|
48
口口口口 |①---|
②口口② |----|
口口口口 |②---|
①口口① |----|
49
口③口口 |①---|
口②口口 |②---|
口①口口 |③---|
口口口口 |----|
50
口口口口 |①---|
口③②口 |②---|
口④①口 |③---|
口口口口 |④---|
51
口口口口 |①---|
口③②口 |②---|
口④①口 |③---|
口口口口 |④---|
52
②口口② |①---|
口口口口 |----|
①口口① |②---|
口口口口 |----|
53
口③③口 |①---|
口②②口 |②---|
口①①口 |③---|
口口口口 |----|
54
口口口口 |①---|
④口口① |②---|
③口口② |③---|
口口口口 |④---|
55
口口口口 |①---|
口口口① |②---|
③口口② |③---|
口口口口 |----|
56
口口口口 |①---|
口③①口 |②---|
口②④口 |③---|
口口口口 |④---|
57
口③①口 |①---|
口口口口 |②---|
④口口② |③---|
口口口口 |④---|
58
口口口口 |①---|
口③①口 |②---|
口②④口 |③---|
口口口口 |④---|
59
口口口口 |①---|
口口③口 |②---|
口②口口 |③---|
①口口口 |----|
60
口口口口 |①---|
口①③口 |②---|
口④②口 |③---|
口口口口 |④---|
61
口①③口 |①---|
口口口口 |②---|
②口口④ |③---|
口口口口 |④---|
62
口口口口 |①---|
口①③口 |②---|
口④②口 |③---|
口口口口 |④---|
63
口口口口 |①---|
口③口口 |②---|
口口②口 |③---|
口口口① |----|

不確定度: 0

最終更新:2015年05月07日 16:09