Ha・lle・lu・jah
SOUND HOLIC feat. Nana Takahashi

ADVANCED

Level: 7
BPM: 150
Notes: 402

1
口口口口 |----|
口口口口 |----|
口口口口 |----|
口口口口 |----|
2
②口口① |①-②-|
口④③口 |③-④-|
⑥口口⑤ |⑤-⑥-|
口⑧⑦口 |⑦-⑧-|
3
口③③口 |①---|
④②②口 |②---|
口①①口 |③---|
口口口口 |--④-|
4
口口口① |①---|
口③②口 |②-③-|
口⑤④口 |④-⑤-|
口⑦⑥口 |⑥-⑦-|
5
④⑤⑤口 |①-②-|
口口口③ |③-④-|
②口口口 |⑤---|
口口口① |----|
6
口口口口 |----|
口口口口 |----|
口口口口 |----|
口口口口 |----|
7
①②③④ |①---|
口口口口 |②---|
口口口口 |③---|
口口口口 |④---|
8
口口口口 |①---|
口口口① |②---|
口口口② |③---|
口口④③ |④---|
9
口口口口 |①---|
④口口口 |②---|
③口口口 |③---|
②①口口 |④---|
10
①②口口 |①---|
口③③口 |②---|
口④④口 |③---|
口口口口 |④---|
11
①③④⑤ |①-②-|
口口口② |③---|
口口口口 |④---|
口口口口 |⑤---|
12
口口口口 |①-②-|
口口口① |③---|
口②口③ |④---|
口口⑤④ |⑤---|
13
口口口口 |①-②-|
⑤口②口 |③---|
④口口口 |④---|
③①口口 |⑤---|
14
①③④⑤ |①-②-|
口口口口 |③---|
口口②口 |④---|
口口口口 |⑤---|
15
口⑤口口 |①-②-|
①口③⑥ |③-④-|
口②⑦④ |⑤---|
口口口口 |⑥-⑦-|
16
口口③口 |①-②-|
口①口口 |③---|
②口口口
口口口口

口口口⑦
口⑥口口
口口⑤口 |④-⑤-|
口④口口 |⑥-⑦-|
17
①口口口 |①---|
口口③口 |②-③-|
口②口口
口口口口

⑤⑤口口
口口口口
口口口口 |--④-|
口口④④ |--⑤-|
18
口口口③ |----|
口口口口 |①-②-|
口②①口 |--③-|
口口口口 |----|
19
口⑤口口 |①-②-|
口②⑦④ |③-④-|
①口③⑥ |⑤---|
口口口口 |⑥-⑦-|
20
口口③口 |①-②-|
②④口口 |③---|
口①⑤口 |④-⑤-|
口⑥⑦口 |⑥-⑦-|
21
⑤口口⑤ |①---|
口④④② |②-③-|
口①口口 |--④-|
③口口口 |--⑤-|
22
口口口口 |----|
口口口口 |----|
口口口口 |----|
口①口口 |--①-|
23
⑤口⑥⑥ |①-②-|
③④口口 |③-④-|
①②口口 |⑤--⑥|
口口⑦口 |--⑦-|
24
⑥⑥口⑤ |①-②-|
口口④③ |③-④-|
口口②① |⑤--⑥|
⑦口口口 |--⑦-|
25
口口口口 |①-②-|
④③口口 |③-④-|
②①口口
口口口口

口⑤⑥⑥
口口口口
口⑦⑦口 |⑤--⑥|
口口口口 |--⑦-|
26
口口③口 |①--②|
②①①口 |--③-|
口口口②
口③口口

④⑤口口
口口⑤口
口口口口 |④--⑤|
⑥口口④ |--⑥-|
27
口⑤⑥⑥ |①-②-|
④③口口 |③-④-|
②①口口 |⑤--⑥|
口口口⑦ |--⑦-|
28
⑥⑥⑤口 |①-②-|
口口③④ |③-④-|
口口①② |⑤--⑥|
⑦口口口 |--⑦-|
29
口口③口 |①--②|
口②①口 |--③-|
口①②口
口口口口

④口口⑤
口⑥口口
口口口口 |④--⑤|
⑤口口④ |--⑥-|
30
口口口② |①---|
口口③口 |--②-|
口④①口 |③-④-|
⑤⑥口口 |⑤-⑥-|
31
②②口口 |①---|
口口口口 |----|
口口口口 |②---|
口口①口 |----|
32
②口口口 |①---|
口③口口 |--②-|
口口④口 |③-④-|
①①⑥⑤ |⑤-⑥-|
33
口口②② |①---|
口口口口 |----|
口口口口 |②---|
口①口口 |----|
34
口口口口 |①---|
口④口口 |----|
口口③口 |--②-|
口②①① |③-④-|
35
口口①口 |①---|
口口⑥口 |②-③-|
②⑤口③ |--④-|
口口④口 |⑤-⑥-|
36
口①口口 |①---|
②③口口 |--②-|
口口⑤④ |③-④-|
口⑥口口 |⑤-⑥-|
37
③口口口 |①---|
③口口口 |----|
口②②口 |②---|
口口①口 |--③-|
38
口口口① |①---|
口②口① |--②③|
口口③口 |④---|
口④口口 |----|
39
口口口口 |①-②-|
口口口口 |③-④-|
③口口④
①口口②
40
①①口口 |①-②-|
口②③③ |③-④-|
口口④口 |⑤-⑥-|
⑤⑥⑦口 |⑦---|
41
⑦⑦口口 |①-②-|
④⑤⑥口 |③---|
口③②① |④-⑤-|
口口口口 |⑥-⑦-|
42
口⑥⑦口 |--①-|
⑤口口口 |②-③-|
④口口① |④-⑤-|
口③②口 |⑥-⑦-|
43
口口口口 |--①-|
口口口口 |②-③-|
口①②口 |④---|
口③④口 |----|
44
①①口口 |①-②-|
口②③③ |③-④-|
口口④口 |⑤-⑥-|
⑤⑥⑦口 |⑦---|
45
⑦⑦口口 |①-②-|
④⑤⑥口 |③---|
口③②① |④-⑤-|
口口口口 |⑥-⑦-|
46
口口口⑦ |--①-|
口⑥口① |②-③-|
②口⑤口 |④-⑤-|
口④口③ |⑥-⑦-|
47
口④口口 |--①-|
④口③口 |②-③-|
口②口口 |④---|
口口①口 |----|
48
②口口① |①-②-|
口④③口 |③-④-|
⑥口口⑤ |⑤-⑥-|
口⑧⑦口 |⑦-⑧-|
49
口③③口 |①---|
口②②口 |②---|
口①①口 |③---|
口口口口 |----|
50
口口口① |①-②-|
口口②口 |③-④-|
口口口③
口口④口

⑥⑥口口
口口⑦口
口口口口 |⑤--⑥|
口⑤口口 |--⑦-|
51
口口口④ |①-②-|
口③口口 |③-④-|
口①②口
口口口口

⑤口口口
口口⑥口
口⑥口口 |⑤--⑥|
口口口口 |----|
52
口⑤①口 |①-②-|
②口⑥口 |③-④-|
口⑦口③ |⑤-⑥-|
④口⑧口 |⑦-⑧-|
53
①口①口 |①---|
口②口② |②---|
③口③口 |③---|
口口口口 |----|
54
口①口口 |①-②-|
②口口口 |③-④-|
口③口口
④口口口

口口⑥⑥
⑦口口口
口口口口 |⑤--⑥|
口口口⑤ |--⑦-|
55
口口口口 |①-②-|
口④口口 |③-④-|
口口③①
口②口口

口口⑤⑤
口口口口
⑥口口⑥ |⑤---|
口口口口 |⑥---|
56
①①口口 |①-②-|
口②③③ |③-④-|
口口④口 |⑤-⑥-|
⑤⑥⑦口 |⑦---|
57
⑦⑦口口 |①-②-|
④⑤⑥口 |③---|
口③②① |④-⑤-|
口口口口 |⑥-⑦-|
58
口⑥⑦口 |--①-|
⑤口口口 |②-③-|
④口口① |④-⑤-|
口③②口 |⑥-⑦-|
59
口口口口 |--①-|
口口口口 |②-③-|
口①②口 |④---|
口③④口 |----|
60
①①口口 |①-②-|
口②③③ |③-④-|
口口④口 |⑤-⑥-|
⑤⑥⑦口 |⑦---|
61
⑦⑦口口 |①-②-|
④⑤⑥口 |③---|
口③②① |④-⑤-|
口口口口 |⑥-⑦-|
62
口口⑦⑦ |--①-|
口⑥口① |②-③-|
②口⑤口 |④-⑤-|
口④口③ |⑥-⑦-|
63
④④口口 |--①-|
口口③口 |②-③-|
口②口口 |④---|
口口①口 |----|
64
口口口口 |①---|
①口口① |----|
①口口① |----|
口口口口 |----|

不確定度: 0

最終更新:2015年05月07日 16:09