Ignis Danse
Yuji Masubuchi「太鼓の達人」より

BASIC

Level: 5
BPM: 246
Notes: 376

1
口口口口 |----|
口口口口 |----|
口口口口 |----|
口口口口 |----|
2
口口口口 |①---|
口口口口 |----|
口口口② |②---|
口口口① |----|
3
口口口② |①---|
口口口① |----|
口口口口 |②---|
口口口口 |----|
4
口口口口 |①---|
口口口口 |----|
口口口② |②---|
口口口① |----|
5
口口口② |①---|
口口口① |----|
口口口口 |②---|
口口口口 |----|
6
口口口口 |①---|
口口口口 |----|
口口口② |②---|
①口口① |----|
7
口口口② |①---|
口口口① |----|
口①口口 |②---|
口口口口 |----|
8
口口口口 |①---|
口口口口 |----②-|
口②③口 |----|
①口口① |----③-|
9
口口②口 |----①-|
口口①口 |----②-|
口口口口 |----|
口口口口 |----|
10
口口口口 |①---|
口口口口 |----|
口②③口 |②---|
口口①口 |③---|
11
口口口口 |①---|
口③②口 |----|
口口口① |②---|
口口口口 |③---|
12
口口口② |①---|
①口口口 |----|
口口口口 |②---|
口口口口 |----|
13
口口口口 |①---|
口①口口 |----|
②口口口 |②---|
口口口口 |----|
14
口口口口 |①---|
口口口口 |----|
口②③口 |②---|
口口①口 |③---|
15
口口口口 |①---|
口③②口 |----|
口口口① |②---|
口口口口 |③---|
16
口口口口 |①---|
①口口口 |----|
口口②口 |②---|
口口口口 |----|
17
口口口口 |①---|
口口口口 |----|
口①口口 |----|
口口口口 |----|
18
口口口口 |①---|
口口口口 |----|
口③②口 |②---|
口①口口 |③---|
19
口口口口 |①---|
口②③口 |----|
①口口口 |②---|
口口口口 |③---|
20
②口口口 |①---|
口口口① |----|
口口口口 |②---|
口口口口 |----|
21
口口口口 |①---|
口口①口 |----|
口口口② |②---|
口口口口 |----|
22
口口口口 |①---|
口口口口 |----|
口③②口 |②---|
口①口口 |③---|
23
口口口口 |①---|
口②③口 |----|
①口口口 |②---|
口口口口 |③---|
24
口口口口 |①---|
口口口① |----|
口②口口 |②---|
口口口口 |----|
25
口口口口 |①---|
口口口口 |----|
口口①口 |----|
口口口口 |----|
26
口口口口 |----|
口口口口 |----|
口口口口 |----|
口口口口 |----|
27
口口口口 |①---|
口口口口 |----|
口口口口 |②---|
口①口② |----|
28
口口口口 |①---|
口①口口 |----|
口口口口 |----|
口口口口 |----|
29
口②口口 |①---|
口口口口 |----|
口口①口 |②---|
口口口口 |----|
30
口口口口 |①---|
口口②口 |----|
口①口口 |②---|
口口口口 |----|
31
①口口口 |----|
口口口口 |①---|
口②口口 |----|
口口口口 |②---|
32
口口口口 |----|
口②②口 |①---|
口口口口 |----|
口①①口 |②---|
33
口口口口 |----|
口口口口 |----|
口口口口 |----|
口口口口 |----|
34
①口口① |①---|
②口口② |----|
口口口口 |②---|
口口口口 |----|
35
口口口口 |①---|
口口口口 |----|
①口口① |②---|
②口口② |----|
36
口①①口 |①---|
口②②口 |----|
口口口口 |②---|
口口口口 |----|
37
口口口口 |①---|
口口口口 |----|
口①①口 |②---|
口②②口 |----|
38
口②②口 |①---|
口口口口 |----|
①口口① |----|
口口口口 |②---|
39
口口口口 |----|
①①口口 |----①-|
口口②② |----|
口口口口 |②---|
40
口口口口 |----①-|
口口口口 |----|
①①口口 |②---|
③③②② |----③-|
41
口口口口 |----|
口口口口 |----|
口口口口 |----|
口口口口 |----|
42
口口口口 |①---|
口②口口 |----|
口口①口 |----|
口口口口 |②---|
43
口口口口 |①---|
口口②口 |----|
口①口口 |----|
口口口口 |②---|
44
口口口口 |----|
口口口口 |----|
口口口口 |----|
口口口口 |----|
45
口④口口 |①---|
口口口③ |②---|
口②口口 |③---|
口口口① |④---|
46
口口①口 |①---|
②口口口 |②---|
口口③口 |③---|
④口口口 |④---|
47
④口口口 |①---|
口口③口 |②---|
②口口口 |③---|
口口①口 |④---|
48
口口口① |①---|
口②口口 |②---|
口口③口 |③---|
口口口口 |----|
49
口④口口 |①---|
口口口③ |②---|
口②口口 |③---|
口口口① |④---|
50
口口①口 |①---|
②口口口 |②---|
口口③口 |③---|
④口口口 |④---|
51
④口口口 |①---|
口口③口 |②---|
②口口口 |③---|
口口①口 |④---|
52
口口口口 |----|
口口口口 |①---|
口①①口 |----|
口口口口 |----|
53
口口口口 |----|
口口口口 |----|
口口口口 |----|
口口①口 |①---|
54
口口口口 |①---|
口口④口 |②---|
口③②口 |③---|
口①口口 |④---|
55
口③②④ |①---|
口①口口 |②---|
口口口口 |③---|
口口口口 |④---|
56
①口口口 |①---|
③口口② |②---|
口口口④ |③---|
口口口口 |④---|
57
口口口口 |①---|
口口②口 |②---|
①口口口 |----|
口口口③ |③---|
58
口口口口 |①---|
口口口④ |②---|
③口口② |③---|
①口口口 |④---|
59
③口④② |①---|
①口口口 |②---|
口口口口 |③---|
口口口口 |④---|
60
口①口口 |①---|
口③②口 |②---|
口口口④ |③---|
口口口口 |④---|
61
口口④④ |①---|
口口口口 |②---|
③②①口 |③---|
口口口口 |--④-|
62
②②口口 |----|
口口口口 |①---|
口口①口 |--②-|
口口口口 |----|
63
口口口口 |①---|
口口②② |--②-|
口①③口 |----|
口口口口 |③---|
64
口口口口 |--①-|
①①③③ |----|
口②口口 |②---|
口口口口 |--③-|
65
口口②② |----|
口口口口 |----|
口口口口 |①---|
口①口口 |--②-|
66
②②口口 |----|
口口口口 |①---|
口口口口 |--②-|
口口①口 |----|
67
口口口口 |①---|
口口②② |--②-|
口口口口 |----|
口①③口 |③---|
68
口口口口 |--①-|
①①口口 |----|
口口③③ |②---|
口②口口 |--③-|
69
口口②② |----|
口口口口 |----|
口①口口 |①---|
口口口口 |--②-|
70
②②口口 |----|
口口口口 |①---|
口口①口 |--②-|
口口口口 |----|
71
口口口口 |①---|
口口②② |--②-|
口口口口 |----|
口①③口 |③---|
72
口口口口 |--①-|
口口口口 |----|
①①③③ |②---|
口②口口 |--③-|
73
口②②口 |----|
口口口口 |①---|
口口口口 |②---|
口口①口 |----|
74
口口口口 |----|
口口口口 |----|
口口口口 |----|
口口口口 |----|
75
口口口口 |----|
①口口口 |----|
①口口口 |①---|
口口口口 |----|
76
口口口口 |----|
口口口① |①---|
口口口① |----|
口口口口 |----|
77
口口口口 |①---|
口①①口 |----|
口①①口 |②---|
口③②口 |③---|
78
④③②① |①---|
口口口口 |②---|
口口口口 |③---|
口口口口 |④---|
79
口口口口 |①---|
口③②① |②---|
口口口④ |③---|
口口口口 |④---|
80
口口口口 |①---|
口口口④ |②---|
③②①口 |③---|
口口口口 |④---|
81
口口口① |----|
口口口口 |①---|
口口口口 |②---|
口②③口 |③---|
82
口口口口 |①---|
①②③④ |②---|
口口口口 |③---|
口口口口 |④---|
83
口口口口 |①---|
口口口口 |②---|
①②③口 |③---|
④口口口 |④---|
84
口口口口 |①---|
口口口口 |②---|
④口口口 |③---|
口①②③ |④---|
85
口口口口 |①---|
口口口口 |②---|
口②口① |③---|
口④③口 |④---|
86
口口口口 |①---|
④③②① |②---|
口口口口 |③---|
口口口口 |④---|
87
口口口口 |①---|
口口口口 |②---|
口③②① |③---|
口口口④ |④---|
88
口口口口 |①---|
口口口④ |②---|
口口口口 |③---|
③②①口 |④---|
89
口口口① |----|
口口口口 |①---|
口口口口 |②---|
口②③口 |③---|
90
口口口口 |①---|
①②③④ |②---|
口口口口 |③---|
口口口口 |④---|
91
口口口口 |①---|
口口口口 |②---|
①②③④ |③---|
口口口口 |④---|
92
口口③口 |①---|
口②①口 |②---|
口口口口 |③---|
口口口口 |----|
93
口口口① |①---|
口口口口 |----|
口口口口 |②---|
③口口② |③---|
94
口口口口 |----|
口口口口 |①---|
③口②① |②---|
口口口口 |③---|
95
口口口口 |----|
③口②① |①---|
口口口口 |②---|
口口口口 |③---|
96
③口②① |----|
口口口口 |①---|
口口口口 |②---|
口口口口 |③---|
97
口口口口 |----|
口口口口 |①---|
口口口口 |②---|
③口②① |③---|
98
口口口口 |----|
口口口口 |①---|
③口②① |②---|
口口口口 |③---|
99
口口口口 |----|
③口②① |①---|
口口口口 |②---|
口口口口 |③---|
100
③口②① |----|
口口口口 |①---|
口口口口 |②---|
口口口口 |③---|
101
口口口口 |①---|
口口①口 |----|
口口口口 |②---|
②口口③ |③---|
102
口口口口 |----|
口口口口 |①---|
①②口③ |②---|
口口口口 |③---|
103
口口口口 |----|
①②口③ |①---|
口口口口 |②---|
口口口口 |③---|
104
①②口③ |----|
口口口口 |①---|
口口口口 |②---|
口口口口 |③---|
105
口口口口 |----|
口口口口 |①---|
口口口口 |②---|
①②口③ |③---|
106
口口口口 |----|
口口口口 |①---|
①②口③ |②---|
口口口口 |③---|
107
口口口口 |----|
①②口③ |①---|
口口口口 |②---|
口口口口 |③---|
108
①②口③ |----|
口口口口 |①---|
口口口口 |②---|
口口口口 |③---|
109
口口口口 |①---|
口①口口 |----|
口口③② |②---|
口口口口 |③---|
110
口口口口 |①---|
口口口口 |②---|
②①口口 |③---|
口口④③ |④---|
111
口口口③ |①---|
口口口口 |②---|
口口④口 |③---|
②①口口 |--④-|
112
①口口口 |----|
口口口口 |①---|
口②口口 |----|
口口口口 |②---|
113
口口口口 |----|
口口口口 |----|
口口口口 |①---|
口口②① |②---|
114
口口口口 |①---|
口口口口 |②---|
口口④③ |③---|
②①口口 |④---|
115
口口④③ |①---|
口口口口 |②---|
②①口口 |③---|
口口口口 |④---|
116
①②口口 |①---|
口口④③ |②---|
口口口口 |③---|
口口口口 |④---|
117
口口口口 |①---|
①②口口 |②---|
口口口口 |③---|
口口④③ |④---|
118
口口口口 |①---|
口口口口 |②---|
口口④③ |③---|
②①口口 |④---|
119
④口口③ |①---|
口口口口 |②---③-|
②①口口 |----|
口口口口 |----④-|
120
口口口口 |----|
口②①口 |----①-|
口口口口 |----|
口口口口 |----②-|
121
口口口口 |----|
口口口口 |----①-|
口②①口 |----|
口口口口 |----②-|
122
口口口口 |----|
口口口口 |----①-|
口口口口 |----|
②口口① |----②-|
123
口口口口 |----|
口①①口 |----①-|
口①①口 |----|
口口口口 |----|

不確定度: 0

最終更新:2015年05月07日 16:08