キルト
Des-Sana+wpt9

EXTREME

Level: 9
BPM: 178
Notes: 755

1
口口口口 |----|
口口口口 |----|
口口口口 |----|
口口口口 |----|
2
口口口⑦ |----|
口口⑥⑤ |----|
口口④③ |①-②③|
①①②口 |④⑤⑥⑦|
3
①①口⑥ |①-②-|
④④⑦⑦ |③-④-|
③②口口 |--⑤-|
口口⑤⑤ |⑥-⑦-|
4
口口④口 |①-②-|
③⑤口⑧ |③-④-|
⑥②⑤⑤ |⑤⑥⑦-|
①⑦口口 |--⑧-|
5
①①③② |①-②-|
④④⑦⑦ |③-④-|
⑥口口口 |--⑤-|
口口⑤⑤ |⑥-⑦-|
6
口④口口 |①-②-|
③⑤口⑧ |③-④-|
⑥②⑤⑤ |⑤⑥⑦-|
①⑦口口 |--⑧-|
7
口③①① |①-②-|
④④⑦⑦ |③-④-|
⑥②口口 |--⑤-|
口口⑤⑤ |⑥-⑦-|
8
口口④口 |①-②-|
③⑥口⑨ |③-④-|
⑦②⑤⑤ |⑤-⑥⑦|
①⑧口口 |⑧-⑨-|
9
①①③③ |①-②-|
⑤⑤口口 |--③-|
④④⑥⑥ |④---|
口口②② |⑤-⑥-|
10
⑥③口⑥ |--①-|
⑤口②⑤ |②-③-|
口口口口 |④-⑤-|
①④④口 |⑥---|
11
口口口口 |①-②-|
口③②口 |③-④-|
口①①口
口④④口

口口⑥⑤
口口口⑦
口口⑧口 |--⑤-|
口口口口 |⑥⑦⑧-|
12
口口口口 |①-②③|
①②⑤口 |④---|
③⑥口口 |⑤-⑥-|
⑦④⑦口 |⑦---|
13
②④④③ |①-②-|
口①⑧① |③-④-|
口口口⑦ |--⑤-|
口口⑥⑤ |⑥⑦⑧-|
14
⑦④⑦口 |①-②③|
③⑥口口 |④---|
①②⑤口 |⑤-⑥-|
口口口口 |⑦---|
15
口口⑥⑤ |①-②-|
口口口⑦ |③-④-|
口①⑧① |--⑤-|
②④④③ |⑥⑦⑧-|
16
口口口口 |①-②③|
①②口口 |④---|
③口口口
口④口口

口口口口
⑧口⑤⑧
口⑥⑦口 |⑤-⑥-|
口口口口 |⑦-⑧-|
17
①①③③ |①-②-|
⑤⑤口口 |--③-|
④④⑥⑥ |④---|
口口②② |⑤-⑥-|
18
⑤③口⑤ |--①-|
⑥口②⑥ |②-③-|
口口口口 |④-⑤-|
①④④口 |⑥---|
19
口②⑥⑥ |①---|
口③③⑤ |②-③-|
⑦④④④ |④-⑤-|
①⑦口① |⑥-⑦-|
20
口口口口 |--①-|
①口④③ |②---|
口口口口 |--③-|
②口①口 |④---|
21
口②⑥⑤ |①---|
口③⑦⑥ |②-③-|
①④③② |④-⑤-|
口①口口 |⑥-⑦-|
22
④口口口 |--①-|
③口⑥⑤ |②---|
①口口口 |③-④-|
②①③④ |⑤-⑥-|
23
口②③④ |①---|
口③口口 |②---|
①④口⑤ |③-④-|
口①口口 |--⑤-|
24
口口口口 |--①-|
口口②① |--②-|
③口①口 |③---|
④③口口 |④---|
25
①口口口 |①---|
②④口口 |②-③-|
口③④口 |----|
口口②① |④---|
26
⑥口口口 |①---|
④口口口 |--②-|
①③口口 |③-④-|
②①⑤口 |⑤-⑥-|
27
口②⑥⑥ |①---|
口③③⑤ |②-③-|
⑦④④④ |④-⑤-|
口⑦口① |⑥-⑦-|
28
口口口口 |--①-|
①口④③ |②---|
口口口口 |--③-|
②口①口 |④---|
29
口②⑥⑤ |①---|
口③⑦⑥ |②-③-|
①④③② |④-⑤-|
口①口口 |⑥-⑦-|
30
④口口口 |--①-|
③口⑥⑤ |②---|
①口口口 |③-④-|
②①③④ |⑤-⑥-|
31
口②③④ |①---|
口③口口 |②---|
①④口⑤ |③-④-|
口①口口 |--⑤-|
32
口口口口 |--①-|
口口③① |②-③-|
④⑦②口 |④-⑤-|
⑥⑤口口 |⑥-⑦-|
33
①口口④ |①---|
②③口口 |--②-|
口口③口 |③---|
口口②① |--④-|
34
④④④④ |--①-|
口口①① |②---|
口②口② |③---|
③③③③ |④---|
35
口口口口 |①②③④|
①②③④ |⑤-⑥-|
⑥⑥口⑤
口口口口
36
①口口口 |----|
③口口口 |①-②-|
⑤口口口 |③-④-|
⑤⑤④② |--⑤-|
37
①⑤口口 |--①-|
③⑥口口 |②-③-|
口⑦⑥⑤ |④-⑤-|
口口④② |⑥-⑦-|
38
口口⑤口 |--①-|
③口口⑤ |②---|
①口口口 |③-④-|
口②④口 |⑤---|
39
口口口② |①---|
口口①口 |②-③-|
④⑤口口 |④-⑤-|
③④口口 |----|
40
①口口口 |----|
③口口口 |①-②-|
⑤口口口 |③-④-|
⑤⑤④② |--⑤-|
41
①⑤口口 |--①-|
③⑥口口 |②-③-|
口⑦⑥⑤ |④-⑤-|
口口④② |⑥-⑦-|
42
口口口口 |----|
②口④口 |①---|
①口口口 |②-③-|
口①③口 |--④-|
43
②口①口 |----|
③口口① |①---|
口③口口 |②---|
口口③② |③---|
44
口口口口 |①-②-|
口②②口 |--③-|
①口③③
①①口口

④④⑤⑤
口口口⑤
⑥⑥口口 |④---|
口口口口 |⑤-⑥-|
45
口口④④ |--①-|
①①口口 |②---|
口口口口 |③---|
③③②② |④---|
46
⑥②⑤口 |①-②-|
口口④口 |--③-|
口①⑥② |④---|
④口③口 |⑤-⑥-|
47
口口口口 |--①-|
④②口④ |②---|
③口口③ |③---|
口①口② |④---|
48
①⑦⑧① |①-②-|
口口口口 |③-④-|
口⑧⑦⑥ |⑤-⑥-|
⑤④③② |⑦-⑧-|
49
③口口① |①-②-|
口⑤⑦口 |③-④-|
①⑧⑦⑥ |⑤-⑥-|
⑤④③② |⑦-⑧-|
50
②口口③ |①---|
口口④① |②---|
①口口口 |③---|
口口口口 |④---|
51
口①③口 |①-②-|
⑤⑦口口 |③-④-|
⑧⑦⑥⑤ |⑤-⑥-|
④③②① |⑦-⑧-|
52
口口口口 |①-②-|
口口①口 |③-④-|
口⑧⑦⑥ |⑤-⑥-|
⑤④③② |⑦-⑧-|
53
口①①口 |①-②-|
口⑤⑤口 |③-④-|
①⑧⑦⑥ |⑤-⑥-|
⑤④③② |⑦-⑧-|
54
口口②① |①---|
口口口口 |----|
①口口口 |②---|
口口口口 |----|
55
③①口口 |①-②-|
口口⑤⑤ |--③-|
④④①① |--④-|
③③②② |⑤---|
56
口口①① |①---|
口口口口 |②---|
口口口④ |③---|
②③口口 |--④-|
57
口⑥⑤④ |①-②-|
口口口口 |③-④-|
④③①口 |--⑤-|
②口口口 |--⑥-|
58
口口口口 |①---|
口①口口 |----|
口口口口 |②---|
②②口① |----|
59
口③口口 |①-②-|
④④①③ |③-④-|
①口②② |--⑤-|
⑤⑤⑤⑤ |----|
60
①②⑤① |①-②-|
口④③口 |③-④-|
⑤③④② |--⑤-|
⑥口口⑥ |--⑥-|
61
②口口① |----|
口②①口 |--①-|
口口口口 |②-③-|
口③③口 |----|
62
⑥②⑤⑥ |①-②-|
①④③① |③-④-|
⑤③④② |--⑤-|
①口口① |--⑥-|
63
口口口口 |----|
口②②口 |①---|
口③③口 |②-③-|
①口口① |----|
64
⑥口口③ |①---|
⑤口口② |②-③-|
①口口④ |--④-|
②①④⑤ |⑤-⑥-|
65
口①①口 |①---|
口②②口 |②---|
口③③口 |③---|
口④④口 |④---|
66
②口口① |①-②-|
④⑥③⑤ |--③-|
⑤③⑥④ |④---|
①口口② |⑤-⑥-|
67
口①①口 |①---|
口口②口 |--②-|
口②口口 |③---|
③③③③ |----|
68
①②④口 |①---|
②③②口 |②-③-|
④②①⑤ |--④-|
口口⑤口 |--⑤-|
69
口口口③ |----|
口口口② |①---|
口口口口 |②---|
③②口① |③---|
70
①②④口 |①---|
②③②口 |②-③-|
④②①⑤ |--④-|
口口⑤口 |--⑤-|
71
口口口③ |----|
口口口② |①---|
口口口口 |②---|
③②口① |③---|
72
口口③口 |①---|
口①②③ |--②-|
③②①口 |----|
口③口口 |③---|
73
口口③口 |①---|
口①②③ |--②-|
③②①口 |----|
口③口口 |③---|
74
口口口口 |①---|
口①②口 |--②-|
口②①口
口口口口

口口③口
口④口口
口口④口 |----|
口③口口 |③-④-|
75
④③口⑤ |①---|
②口口① |②---|
①口口② |③---|
⑤口③④ |④-⑤-|
76
口口口口 |----|
口口口口 |----|
口口口口 |----|
口口口口 |----|
77
口口口口 |----|
口口口口 |----|
口口口口 |----|
口口口口 |----|
78
口口⑦⑤ |①-②-|
⑧②③口 |③-④-|
⑥①口口 |⑤-⑥-|
④口口口 |⑦-⑧-|
79
②①⑧⑧ |①--②|
口⑤③口 |③-④-|
⑥口口口 |⑤⑥⑦-|
⑨⑦⑤④ |⑧-⑨-|
80
口③⑩口 |①--②|
⑧口②⑨ |③-④-|
④口①① |⑤⑥⑦⑧|
口⑦⑥⑤ |⑨-⑩-|
81
⑧⑧⑨⑤ |①-②-|
口②③⑥ |③-④-|
口①口⑦ |⑤⑥⑦-|
④口口口 |⑧-⑨-|
82
口口⑦⑤ |①-②-|
⑧②③口 |③-④-|
⑥①口口 |⑤-⑥-|
④口①① |⑦-⑧-|
83
②①⑨⑨ |①--②|
口⑥④口 |③-④-|
⑦③⑧⑧ |⑤-⑥⑦|
口⑧⑥⑤ |⑧-⑨-|
84
口②口口 |①--②|
③口⑤① |③-④-|
⑪⑥⑦⑧ |⑤⑥⑦⑧|
⑩⑨口④ |⑨⑩⑪-|
85
口②①② |①-②-|
④③口口 |③-④-|
口⑥⑤⑥ |⑤-⑥-|
口⑦⑧口 |⑦-⑧-|
86
①⑤口③ |①-②-|
③口⑤① |--③-|
②⑥口④ |④---|
④口⑥② |⑤-⑥-|
87
④口①④ |--①-|
口①口口 |②---|
③口②③ |③---|
口②口口 |④---|


不確定度: 0

タグ:

+ タグ編集
  • タグ:

このサイトはreCAPTCHAによって保護されており、Googleの プライバシーポリシー利用規約 が適用されます。

最終更新:2013年03月29日 20:31