VERTeX
Hiro「maimai」より

BASIC

Level: 5
BPM: 237
Notes: 419

1
口口口口 |----|
口口口口 |----|
口口口口 |----|
口口口口
2
口口口口 |----|
口口口口 |----|
口口口口 |----|
口口口口
3
①口口① |①---|
口口口口 |----|
口口口口 |----|
口口口口
4
口口口口 |----|
口口口口 |①---|
口②①口 |②---|
口口口口
5
口口口口 |①---|
①口口① |----|
口口口口 |----|
口口口口
6
口口口口 |----|
口口口口 |①---|
口口口口 |②---|
口②①口
7
①口口① |①---|
口口口口 |----|
口口口口 |----|
口口口口
8
口口口口 |----|
口口口口 |①---|
口②①口 |②---|
口口口口
9
口口口口 |①---|
①口口① |----|
口口口口 |----|
口口口口
10
①①①① |①---|
口口口口 |----|
口口口口 |----|
口口口口
11
口口口口 |①---|
口口口口 |②---|
①②③口 |③---|
口口口口
12
口口口口 |①---|
口口口口 |②---|
口口口① |③---|
口②③口
13
口口口口 |①---|
①②③口 |②---|
口口口口 |③---|
口口口口
14
口口口口 |①---|
口口口① |②---|
口②③口 |③---|
口口口口
15
①②③口 |①---|
口口口口 |②---|
口口口口 |③---|
口口口口
16
口口口① |①---|
口②③口 |②---|
口口口口 |③---|
口口口口
17
口口口口 |①---|
口口口口 |----|
口①①口 |----|
口口口口
18
口口口口 |----|
口口口口 |----|
口口口口 |----|
口口口口
19
①①①① |①---|
口口口口 |----|
口口口口 |----|
口口口口
20
口口口口 |----|
口口口口 |----|
口口口口 |----|
口口口口
21
口①①口 |①---|
口口口② |----|
口口口口 |②---|
口口口口
22
口口口口 |----|
口口口口 |①---|
口口①口 |----|
口口口口
23
口①①口 |①---|
②口口口 |----|
口口口口 |②---|
口口口口
24
口口口口 |----|
口口口口 |①---|
口①口口 |----|
口口口口
25
口①①口 |①---|
口口口② |----|
口口口口 |②---|
口口口口
26
口口口口 |----|
口口口口 |①---|
口口①口 |----|
口口口口
27
口①①口 |①---|
口口口口 |----|
口口口口 |----|
口口口口
28
口口口口 |①---|
口①①口 |----|
口口口口 |----|
口口口口
29
口①①口 |①---|
口口口② |----|
口口口口 |②---|
口口口口
30
口口口口 |----|
口口口口 |①---|
口口①口 |----|
口口口口
31
口①①口 |①---|
②口口口 |----|
口口口口 |②---|
口口口口
32
口口口口 |----|
口口口口 |①---|
口①口口 |----|
口口口口
33
口①①口 |①---|
口口口② |----|
口口口口 |②---|
口口口口
34
口口口口 |----|
口口口口 |①---|
口口①口 |----|
口口口口
35
口①①口 |①---|
口口口口 |----|
口口口口 |----|
口口口口
36
口口口口 |①---|
口①①口 |----|
口口口口 |----|
口口口口
37
口口口口 |①---|
口③口口 |②---|
口口②口 |③---|
口口口①
38
①②③口 |①---|
口口口口 |②---|
口口口口 |③---|
口口口口
39
口口口口 |①---|
①口口口 |----|
①口口口 |----|
口口口口
40
口口口口 |①---|
口口口① |----|
口口口① |----|
口口口口
41
口口口口 |①---|
口口③口 |②---|
口②口口 |③---|
①口口口
42
口③②① |①---|
口口口口 |②---|
口口口口 |③---|
口口口口
43
口口口口 |①---|
口口口① |----|
口口口① |----|
口口口口
44
口口口口 |①---|
①口口口 |----|
①口口口 |----|
口口口口
45
口口口口 |①---|
口③口口 |②---|
口口②口 |③---|
口口口①
46
①②③口 |①---|
口口口口 |②---|
口口口口 |③---|
口口口口
47
口口口口 |①---|
①口口口 |----|
①口口口 |----|
口口口口
48
口口口口 |①---|
口口口① |----|
口口口① |----|
口口口口
49
①②③口 |①---|
口口口口 |②---|
口口口口 |③---|
口口口口
50
口口口口 |①---|
①②③口 |②---|
口口口口 |③---|
口口口口
51
口口口口 |①---|
口口口口 |②---|
①②③口 |③---|
口口口口
52
口①②口 |①---|
口①②口 |②---|
口口口口 |----|
口口口口
53
口口口口 |①---|
口口口口 |----|
口口口口 |----|
①口口①
54
口口口口 |----|
口口口口 |----|
口口口口 |----|
口口口口
55
口口口口 |①---|
口口口口 |----|
①口口① |----|
口口口口
56
口①①口 |①---|
口口口口 |----|
口口口口 |----|
口口口口
57
口口口口 |①---|
口①①口 |----|
口口口口 |----|
口口口口
58
口口口口 |----|
口口口口 |----|
口口口口 |----|
口口口口
59
口口口口 |①---|
口口口口 |----|
口口口口 |----|
口①①口
60
口口口口 |①---|
口口口口 |----|
口①①口 |----|
口口口口
61
①口口① |①---|
口口口口 |----|
口口口口 |----|
口口口口
62
口口口口 |----|
口口口口 |----|
口口口口 |----|
口口口口
63
口口口口 |①---|
①口口① |----|
口口口口 |----|
口口口口
64
口口口口 |①---|
口口口口 |----|
口口口口 |----|
口①①口
65
口口口口 |①---|
口口口口 |----|
口①①口 |----|
口口口口
66
口口口口 |①---|
口①①口 |----|
口口口口 |----|
口口口口
67
②②口口 |①---|
口口口① |--②-|
口口口口 |----|
口口口口
68
口口口口 |①---|
②②口口 |--②-|
口口口① |----|
口口口口
69
口口口口 |①---|
口口②② |--②-|
口口口口 |----|
口口①①
70
口口②② |①---|
口口口口 |--②-|
口口①① |----|
口口口口
71
口口口口 |①---|
②②口口 |--②-|
口口口口 |----|
①①口口
72
②②口口 |①---|
口口口口 |--②-|
①①口口 |----|
口口口口
73
口口口口 |①---|
口②②口 |--②-|
口口口口 |----|
口①①口
74
口②②口 |①---|
口口口口 |--②-|
口①①口 |----|
口口口口
75
口口口口 |①-②-|
③③②② |--③-|
①口口口 |--④-|
口口④④
76
口③③口 |--①-|
口口口口 |--②-|
口②②口 |--③-|
①①口口
77
①口口① |①---|
口口口口 |----|
口口口口 |----|
口口口口
78
口口口口 |①---|
口口口口 |②---|
口③②① |③---|
口③②①
79
口口口口 |①---|
口口口口 |----|
①口口口 |----|
①口口口
80
口口口口 |----|
口①②口 |①---|
口口口口 |②---|
口口口口
81
口口口口 |①---|
③口口口 |②---|
②口口口 |③---|
①口口口
82
①口口口 |①---|
口②②口 |②---|
口③③口 |③---|
口口口口
83
口口口口 |①---|
口口口口 |②---|
口口口③ |③---|
口①①②
84
口口口② |①---|
口③③① |②---|
口口口口 |③---|
口口口口
85
口口口口 |①---|
口口口口 |----|
口①①口 |----|
口口口口
86
口口口口 |----|
口口口口 |----|
口口口口 |----|
口口口口
87
口口口口 |----|
口口口口 |----|
口口口口 |----|
口口口口
88
口口口口 |①---|
口口③口 |②---|
口②①口 |③---|
口口口口
89
口口口口 |①---|
口①口口 |----|
口口口口 |----|
口口口口
90
口口口口 |①---|
口口口口 |----|
口①①口 |----|
口口口口
91
①口口① |①---|
口口口口 |----|
口口口口 |----|
口口口口
92
口口口口 |①---|
口①①口 |②---|
口②②口 |③---|
口③③口
93
口口口口 |①---|
口口口口 |----|
口口口口 |----|
①口口口
94
口口口口 |①---|
口口口口 |----|
①口口口 |----|
口口口口
95
口口口口 |①---|
①口口口 |----|
口口口口 |----|
口口口口
96
口①②② |①-②-|
口口③③ |--③-|
口口④④ |--④-|
口口口口
97
口口口口 |①---|
口口口口 |----|
口口口口 |----|
①口口口
98
口口口口 |①---|
口口口口 |----|
①口口口 |----|
口口口口
99
口口口口 |①---|
①口口口 |----|
口口口口 |----|
口口口口
100
口①①口 |①---|
口②②口 |②---|
口③③口 |③---|
口口口口
101
口口口口 |①---|
口口口口 |----|
口口口口 |----|
①口口口
102
口口口口 |①---|
口口口口 |----|
①口口口 |----|
口口口口
103
口口口口 |①---|
①口口口 |----|
口口口口 |----|
口口口口
104
口①②② |①-②-|
口口③③ |--③-|
口口④④ |--④-|
口口口口
105
口口口口 |①---|
口口口口 |----|
口口口口 |----|
①口口口
106
口口口口 |①---|
口口口口 |----|
①口口口 |----|
口口口口
107
口③②口 |①---|
①口口口 |②---|
口口口口 |③---|
口口口口
108
口口口口 |①---|
口②①口 |②---|
口口③口 |③---|
口口口口
109
口口口口 |①---|
口口口口 |----|
口①口口 |----|
口口口口
110
口口口口 |----|
口口口口 |----|
口口口口 |----|
口口口口
111
口口口口 |----|
口口口口 |----|
口口口口 |----|
口口口口
112
口口口口 |----|
口口口口 |----|
口口口口 |----|
口口口口
113
口口口口 |①---|
口口口口 |----|
口口口口 |----|
口口①①
114
口口口口 |①---|
口口口口 |----|
口口①① |----|
口口口口
115
口口口口 |①---|
口口口口 |----|
口口口口 |----|
①①口口
116
口口口口 |①---|
口口口口 |----|
①①口口 |----|
口口口口
117
口口口口 |①---|
口口口口 |----|
口口口口 |----|
口①①口
118
口口口口 |①---|
口口口口 |----|
口①①口 |----|
口口口口
119
口口口口 |①-②-|
③③②② |--③-|
①口口口 |--④-|
口口④④
120
口③③口 |--①-|
口口口口 |--②-|
口②②口 |--③-|
①①口口
121
①口口① |①---|
口口口口 |----|
口口口口 |----|
口口口口
122
口口口口 |①---|
口口口口 |②---|
口③②① |③---|
口③②①
123
口口口口 |①---|
口口口口 |----|
①口口口 |----|
①口口口
124
口口口口 |----|
口①②口 |①---|
口口口口 |②---|
口口口口
125
口口口口 |①---|
③口口口 |②---|
口口口② |③---|
①口口口
126
口口口① |①---|
口②②口 |②---|
口③③口 |③---|
口口口口
127
口②①口 |①---|
口口口③ |②---|
口口口口 |③---|
口口口口
128
口口口口 |①---|
①口口口 |②---|
口③②口 |③---|
口口口口
129
口口口口 |①---|
口口②② |--②-|
口口口口 |----|
口口①①
130
口口②② |①---|
口口口口 |--②-|
口口①① |----|
口口口口
131
口口口口 |①---|
②②口口 |--②-|
口口口口 |----|
①①口口
132
②②口口 |①---|
口口口口 |--②-|
①①口口 |----|
口口口口
133
口口口口 |①---|
口②②口 |--②-|
口口口口 |----|
口①①口
134
口②②口 |①---|
口口口口 |--②-|
口①①口 |----|
口口口口
135
口口口口 |①-②-|
③③②② |--③-|
①口口口 |--④-|
口口④④
136
口③③口 |--①-|
口口口口 |--②-|
口②②口 |--③-|
①①口口
137
口口口① |①---|
口口口② |②---|
口口口③ |③---|
口口口口
138
口③③口 |①---|
口②②口 |②---|
口①①口 |③---|
口口口口
139
①口口口 |①---|
②口口口 |②---|
③口口口 |③---|
口口口口
140
口③③口 |①---|
口②②口 |②---|
口①口口 |③---|
口口口口
141
①口口① |①---|
②口口② |②---|
③口口③ |③---|
口口口口
142
口口口口 |①---|
口③③口 |②---|
口②②口 |③---|
口①①口
143
②口口① |①---|
口口口③ |②---|
口口口口 |③---|
口口口口
144
口口口口 |①---|
①口口口 |②---|
③口口② |③---|
口口口口
145
口口口口 |①---|
口口②② |--②-|
口口口口 |----|
口口①①
146
口口②② |①---|
口口口口 |--②-|
口口①① |----|
口口口口
147
口口口口 |①---|
②②口口 |--②-|
口口口口 |----|
①①口口
148
②②口口 |①---|
口口口口 |--②-|
①①口口 |----|
口口口口
149
口口口口 |①---|
口②②口 |--②-|
口口口口 |----|
口①①口
150
口②②口 |①---|
口口口口 |--②-|
口①①口 |----|
口口口口
151
①口口① |①---|
②口口② |--②-|
口口口口 |----|
口口口口
152
口口口口 |①---|
口①①口 |----|
口口口口 |----|
口①①口

不確定度: 0

最終更新:2015年05月07日 16:08