FUJIN Rumble
COSIO(ZUNTATA)「グルーヴコースター」より

BASIC

Level: 4
BPM: 192
Notes: 319

1
口口口口 |----|
口口口口 |----|
口口口口 |----|
口口口口 |----|
2
口口口口 |----|
口口口口 |----|
口口口口 |----|
口口口口 |----|
3
口口口口 |----|
口口口口 |----|
口口口口 |----|
口口口口 |----|
4
口口口口 |----|
口口口口 |----|
口口口口 |----|
口口口口 |----|
5
口口口口 |①---|
①口口① |----|
①口口① |----|
口口口口 |----|
6
口口口口 |----|
口口口口 |----|
口口口口 |----|
口口口口 |----|
7
口口口口 |----|
口口口口 |----|
口口口口 |----|
口口口口 |----|
8
口口口口 |----|
口口口口 |----|
口口口口 |----|
口口口口 |----|
9
口口口口 |①---|
①口口① |----|
①口口① |----|
口口口口 |----|
10
口口口口 |①---|
口口①口 |----|
口口口口 |----|
口口口口 |----|
11
口口口口 |①---|
口口口口 |----|
口口①口 |----|
口口口口 |----|
12
口口口口 |①---|
口口口口 |----|
口口口口 |----|
口口①口 |----|
13
口口口口 |①---|
口口口口 |----|
口口口口 |----|
口①口口 |----|
14
口口口口 |①---|
口口口口 |----|
口①口口 |----|
口口口口 |----|
15
口口口口 |①---|
口①口口 |----|
口口口口 |----|
口口口口 |----|
16
口①口口 |①---|
口口口口 |----|
口口口口 |----|
口口口口 |----|
17
口口②口 |①---|
①③④① |②---|
①口口① |③---|
口口口口 |④---|
18
口口口口 |①---|
口口口口 |②---|
口①②口 |③---|
口③④口 |④---|
19
口口口口 |①---|
口口口口 |②---|
③口口④ |③---|
①口口② |④---|
20
③口口④ |①---|
①口口② |②---|
口口口口 |③---|
口口口口 |④---|
21
口①②口 |①---|
口③④口 |②---|
口口口口 |③---|
口口口口 |④---|
22
口口口口 |①---|
口口口口 |②---|
口①②口 |③---|
口③④口 |④---|
23
口口口口 |①---|
①②④③ |②---|
口口口口 |③---|
口口口口 |④---|
24
④口口④ |①---|
③口口③ |②---|
②口口② |③---|
①口口① |④---|
25
口口口口 |----|
口口口口 |----|
口口口口 |----|
口口口口 |----|
26
口口口口 |----|
口口口口 |----|
口口口口 |----|
口口口口
27
口口口口 |----|
口口口口 |----|
口口口口
口口口口
28
口口口口 |①---|
①②口口 |②---|
口口④③ |③---|
口口口口 |④---|
29
口口口口 |①---|
口口④③ |②---|
①②口口 |③---|
口口口口 |④---|
30
①②口口 |①---|
口口口口 |②---|
口口④③ |③---|
口口口口 |④---|
31
口口口口 |①---|
口口④③ |②---|
口口口口 |③---|
①②口口 |④---|
32
口口④③ |①---|
口口口口 |②---|
①②口口 |③---|
口口口口 |④---|
33
口口口口 |①---|
①②口口 |②---|
口口口口 |③---|
口口④③ |④---|
34
口口④③ |①---|
口口口口 |②---|
①②口口 |③---|
口口口口 |④---|
35
①②口口 |①---|
口口口口 |②---|
口口④③ |③---|
口口口口 |④---|
36
③②②③ |①---|
口①①口 |--②-|
口口口口 |----|
口口口口 |③---|
37
口口口口 |--①-|
①口口① |----|
②口口② |②---|
口口口口
38
口口口口 |①---|
口口口口 |--②-|
③②②③ |----|
口①①口 |③---|
39
口口口口 |--①-|
口②②口 |----|
口口口口 |②---|
①口口①
40
①口口① |----|
口口口口 |--①-|
口口口口 |----|
口口口口
41
③②②③ |①---|
口①①口 |--②-|
口口口口 |----|
口口口口 |③---|
42
口口口口 |--①-|
①口口① |----|
②口口② |②---|
口口口口
43
口口口口 |①---|
口口口口 |--②-|
③②②③ |----|
口①①口 |③---|
44
口口口口 |--①-|
口②②口 |----|
口口口口 |②---|
①口口① |--|
45
①口口① |①---|
口口口口 |----|
口口口口 |----|
口口口口 |----|
46
口口口口 |----|
口口口口 |----|
口口口口 |----|
口口口口 |----|
47
口口①口 |①---|
口②口口 |②---|
口口③口 |③---|
口④口口 |④---|
48
口口口口 |①---|
口口口口 |----|
口口口口 |----|
口口①口 |----|
49
口口口口 |①---|
①口口① |----|
①口口① |----|
口口口口
50
口口口口 |----|
口口口口 |----|
口口口口
口口口口
51
口口口④ |①---|
口②口③ |②---|
口①口口 |③---|
口口口口 |④---|
52
②口口口 |①---|
①口④口 |②---|
口口③口 |③---|
口口口口 |④---|
53
口口口口 |①---|
口口口口 |②---|
口②口④ |③---|
口①口③ |④---|
54
口口④口 |①---|
②口③口 |②---|
①口口口 |③---|
口口口口 |④---|
55
口口口口 |①---|
口口口③ |②---|
口①口④ |③---|
口②口口 |④---|
56
①口③口 |①---|
②口④口 |②---|
口口口口 |③---|
口口口口 |④---|
57
口口口口 |①---|
口①口口 |②---|
口②口③ |③---|
口口口④ |④---|
58
口口③口 |①---|
口口④口 |②---|
①口口口 |③---|
②口口口 |④---|
59
口口口④ |①---|
口口口③ |②---|
①②口口 |③---|
口口口口 |④---|
60
①②口口 |①---|
口口③口 |②---|
口口④口 |③---|
口口口口 |④---|
61
口口口口 |①---|
口口口口 |②---|
②口④③ |③---|
①口口口 |④---|
62
口②口口 |①---|
口①④③ |②---|
口口口口 |③---|
口口口口 |④---|
63
口口口口 |①---|
口口口口 |②---|
口②口口 |③---|
口①④③ |④---|
64
口口③口 |①---|
①②④口 |②---|
口口口口 |③---|
口口口口 |④---|
65
口口口口 |①---|
口口口口 |②---|
②口④③ |③---|
①口口口 |④---|
66
口②口口 |①---|
口①口口 |②---|
口口口口 |③---|
口口④③ |④---|
67
口口口口 |①---|
口①①口 |----|
口②②口 |②---|
口口口口 |----|
68
口口口口 |①---|
①口口① |----|
②口口② |②---|
口口口口 |----|
69
③①①③ |①---|
口②②口 |----|
口口口口 |②---|
口口口口 |--③-|
70
口口口口 |----|
①口口① |--①-|
口口口口 |----|
口口口口 |----|
71
口①②口 |①---|
口③④口 |②---|
口口口口 |③---|
口口口口 |④---|
72
口口口口 |①---|
口口口口 |②---|
口①②口 |③---|
口③④口 |④---|
73
口口口口 |①---|
口口口口 |②---|
③口口④ |③---|
①口口② |④---|
74
口①①口 |①---|
口②②口 |②---|
口③③口 |③---|
口④④口 |④---|
75
口口口口 |----|
口口口口 |----|
口口口口 |----|
口口口口
76
口②口① |①---|
④口③口 |②---|
口口口口 |③---|
口口口口 |④---|
77
口口口口 |①---|
口口口口 |②---|
口②口① |③---|
④口③口 |④---|
78
口口口口 |①---|
③④口口 |②---|
口口②① |③---|
口口口口 |④---|
79
口口口口 |①---|
口口②① |②---|
③④口口 |③---|
口口口口 |④---|
80
口口口口 |①---|
口口口口 |②---|
③口④口 |③---|
口①口② |④---|
81
③口④口 |①---|
口①口② |②---|
口口口口 |③---|
口口口口 |④---|
82
口口口口 |①---|
①②口口 |②---|
口口④③ |③---|
口口口口 |④---|
83
口口口口 |①---|
口口④③ |②---|
①②口口 |③---|
口口口口 |④---|
84
口口口口 |①---|
②④口口 |②---|
①③口口 |③---|
口口口口 |④---|
85
口口口① |①---|
口口②口 |②---|
口口口③ |③---|
口口④口 |④---|
86
口口口口 |①---|
口口口口 |②---|
③④口口 |③---|
①②口口 |④---|
87
口口④③ |①---|
口口②① |②---|
口口口口 |③---|
口口口口 |④---|
88
口口口口 |①---|
②④口口 |②---|
①③口口 |③---|
口口口口 |④---|
89
口口口① |①---|
口口②口 |②---|
口口口③ |③---|
口口④口 |④---|
90
口口口口 |①---|
口口口口 |②---|
③④口口 |③---|
①②口口 |④---|
91
口口④③ |①---|
口口②① |②---|
口口口口 |③---|
口口口口 |④---|
92
口口口口 |----|
口口口口 |----|
口口口口 |----|
口口口口 |----|
93
口口口口 |----|
口口口口 |----|
口口口口 |----|
口口口口 |----|
94
口口口口 |①---|
①口口① |----|
①口口① |----|
口口口口 |----|
95
口口口口 |----|
口口口口 |----|
口口口口 |----|
口口口口 |----|
96
口口口口 |①---|
②口口② |--②-|
口①①口 |----|
口口口口 |----|
97
口口口口 |①---|
口④③口 |②---|
口②①口 |③---|
口口口口 |④---|
98
口口口口 |----|
口口口口 |----|
口口口口 |----|
口口口口 |----|
99
口口口口 |①---|
①口口① |----|
①口口① |----|
口口口口 |----|

不確定度: 0

最終更新:2015年05月07日 16:07