きょうもハレバレ
ふわりP feat.GUMI's

BASIC

Level: 3
BPM: 134
Notes: 184

1
口口口口 |----|
口口口口 |----|
口口口口 |----|
口口口口 |----|
2
口口口口 |----|
口口口口 |----|
口口口口 |----|
口口口口 |----|
3
口口口口 |----|
口口口口 |----|
口口口口 |----|
口口口口 |----|
4
口口口口 |①---|
口口口② |----|
口口口① |②---|
口口口口 |----|
5
口口口① |①---|
口②②口 |----|
口③③口 |②---|
口口口口 |③---|
6
口口口口 |①---|
②口口口 |----|
①口口口 |②---|
口口口口 |----|
7
①口口口 |①---|
口③②口 |----|
口②③口 |②---|
口口口口 |③---|
8
口口口口 |①---|
口②口口 |----|
口口口① |②---|
口口口口 |----|
9
口口口① |①---|
口口口口 |----|
口③③口 |②---|
口②②口 |③---|
10
口口口口 |①---|
口口②口 |----|
①口口口 |②---|
口口口口 |----|
11
①②②口 |①---|
口口口口 |----|
口口口口 |②---|
口口口口 |----|
12
口口口口 |①---|
口口口口 |----|
口口②口 |②---|
口①口口 |----|
13
口口②口 |①---|
口①口口 |----|
口口口口 |②---|
口口口口 |----|
14
口口口口 |①---|
口口口口 |②---|
口口口口 |③---|
①②③口 |----|
15
口口口口 |①---|
口口口口 |②---|
口③②① |③---|
口口口口 |----|
16
口口口口 |①---|
口口口口 |----|
口②口口 |②---|
口口①口 |----|
17
口②口口 |①---|
口口①口 |----|
口口口口 |②---|
口口口口 |----|
18
④③②① |①---|
口口口口 |②---|
口口口口 |③---|
口口口口 |④---|
19
口口口口 |①---|
①②③④ |②---|
口口口口 |③---|
口口口口 |④---|
20
口口口口 |①---|
口口口口 |----|
①②口口 |②---|
口口口口 |----|
21
口口口口 |①---|
口口口口 |----|
口口口② |②---|
口口①口 |----|
22
口口口口 |①---|
口口②① |----|
口口口口 |②---|
口口口口 |----|
23
口①口口 |①---|
②口口口 |----|
口口口口 |②---|
口口口口 |----|
24
口口口口 |①---|
口口口口 |----|
口②口口 |②---|
口①口口 |----|
25
口口②口 |①---|
口口①口 |----|
口口口口 |②---|
口口口口 |----|
26
口口口口 |①---|
②口口② |----|
口①①口 |②---|
口口口口 |----|
27
口口口口 |①---|
口①①口 |----|
②口口② |②---|
口口口口 |----|
28
口口口口 |①---|
口口口口 |----|
口口口口 |②---|
②①①② |----|
29
口口口口 |①---|
口口口口 |----|
①②①② |②---|
口口口口 |----|
30
①口口① |①---|
口②②口 |----|
口②②口 |②---|
口口口口 |----|
31
口口口口 |①---|
口口④② |②---|
口口③① |③---|
口口口口 |④---|
32
口口口口 |①---|
口②口口 |②---|
③①口口 |③---|
口口口口 |----|
33
口口口口 |①---|
④口口② |②---|
口口口口 |③---|
①口口③ |④---|
34
口①①口 |①---|
口②②口 |②---|
口③③口 |③---|
口口口口 |----|
35
口口④口 |①---|
①口③① |②---|
口②口口 |③---|
口口口口 |④---|
36
口口③口 |①---|
口口口口 |②---|
②口口口 |③---|
①口口口 |----|
37
①口口① |①---|
口②②口 |②---|
③口口③ |③---|
口④④口 |④---|
38
口口口口 |①---|
①口口口 |②---|
口②口口 |③---|
口口③口 |----|
39
口口口口 |①---|
口①①口 |----|
口①①口
口口口口

②口口口
口口口口
口③口口 |②---|
口口口口 |③---|
40
③口口口 |①---|
口口②① |②---|
口口口口 |③---|
口口口口 |----|
41
口口口口 |①---|
口①①口 |----|
口①①口
口口口口

口口口口
口口口口
口口③② |②---|
口口口口 |③---|
42
口口口③ |①---|
①②口口 |②---|
口口口口 |③---|
口口口口 |----|
43
口口④口 |①---|
口口口③ |②---|
口口②口 |③---|
口口①口 |④---|
44
口①口口 |①---|
②口口口 |②---|
口③口口 |③---|
口④口口 |④---|
45
②口口② |①---|
口①①口 |②---|
④口口④ |③---|
口③③口 |④---|
46
口①①口 |①---|
口②②口 |②---|
口③③口 |③---|
口口口口 |----|
47
口口口口 |①---|
口②口口 |----|
口口口① |②---|
口口口口 |----|
48
口口口① |①---|
口口口口 |----|
口③③口 |②---|
口②②口 |③---|
49
口口口口 |①---|
口口②口 |----|
①口口口 |②---|
口口口口 |----|
50
①口口口 |①---|
口②③口 |----|
口③②口 |②---|
口口口口 |③---|
51
口口口口 |①---|
②口口口 |----|
口口口① |②---|
口口口口 |----|
52
口口口① |①---|
口③③口 |----|
口②②口 |②---|
口口口口 |③---|
53
口口口口 |①---|
口口口② |----|
①口口口 |②---|
口口口口 |----|
54
①口口口 |①---|
口②口口 |----|
口口②口 |②---|
口口口口 |----|

不確定度: 0

最終更新:2015年05月07日 16:06