きょうもハレバレ
ふわりP feat.GUMI's

ADVANCED

Level: 6
BPM: 134
Notes: 387

1
口口口口 |----|
口口口口 |----|
口口口口 |----|
口口口口 |----|
2
口口口口 |----|
口口口口 |----|
口口口口 |----|
口口口口 |----|
3
③③口口 |----|
口口②② |--①-|
口①口口 |②---|
口口口口 |③---|
4
口口⑧⑥ |①-②-|
⑤⑦口口 |③-④-|
口口④② |⑤-⑥-|
①③口口 |⑦-⑧-|
5
口口口口 |①-②-|
⑤⑤④② |③-④-|
①③⑥⑥ |⑤---|
口口口口 |⑥---|
6
⑥⑧口口 |①-②-|
口口⑦⑤ |③-④-|
②④口口 |⑤-⑥-|
口口③① |⑦-⑧-|
7
口口口口 |①-②-|
②④⑤⑤ |③-④-|
⑥⑥③① |⑤---|
口口口口 |⑥---|
8
口口⑧⑥ |①-②-|
⑤⑦口口 |③-④-|
口口④② |⑤-⑥-|
①③口口 |⑦-⑧-|
9
口口口口 |①-②-|
⑤⑤④② |③-④-|
①③⑥⑥ |⑤---|
口口口口 |⑥---|
10
⑥⑧口口 |①-②-|
口口⑦⑤ |③-④-|
②④口口 |⑤-⑥-|
口口③① |⑦-⑧-|
11
口口口口 |①-②-|
③④⑤⑤ |③-④-|
⑤⑤②① |⑤---|
口口口口 |----|
12
口⑦口口 |①---|
⑥①口③ |②---|
口口口⑤ |③-④⑤|
口②④口 |-⑥⑦-|
13
口口③口 |①-②-|
口④②口 |③---|
口⑤①口 |--④-|
口⑥口口 |⑤-⑥-|
14
④口口⑤ |①-②③|
口口口口 |④-⑤-|
②⑦⑦③ |⑥---|
①⑥口口 |⑦---|
15
口①口口 |①-②③|
②口⑦③ |④-⑤-|
口⑧口口 |⑥---|
④⑥口⑤ |⑦-⑧-|
16
口口口口 |①---|
②口口口 |②---|
口口①口
口口口口

口口口口
⑥口口③
口口口⑤ |③-④⑤|
口口④口 |--⑥-|
17
口②③① |①-②-|
口口口口 |③---|
口口口口 |--④-|
④⑥⑤口 |⑤-⑥-|
18
④⑥⑦⑤ |①-②③|
口⑧⑨③ |④-⑤-|
②口口口 |⑥-⑦-|
口口口① |⑧-⑨-|
19
口口口口 |--①-|
口口口口 |②---|
③①②④ |--③-|
口⑤口口 |④-⑤-|
20
口口口口 |①---|
④②③口 |--②-|
口口口口 |③---|
口口①口 |④---|
21
口口口口 |①---|
口口口① |--②-|
口④口口 |③---|
②口③口 |--④-|
22
口口口④ |①---|
口口②③ |--②-|
口口口① |③---|
口口口口 |④---|
23
①口②口 |①--②|
口口口口 |--③-|
③口口口
口口口口

口口⑤口
口⑤口口
口④口口 |④---|
口口口口 |--⑤-|
24
②①口口 |①---|
口口①② |--②-|
口口口口
口口口口

口口口③
③口④口
口口口口 |③---|
口口口口 |④---|
25
口口口口 |①--②|
口口口口 |--③-|
③①②口
口②①③

口口口口
口口口⑤
口口口④ |④---|
④⑥口口 |⑤-⑥-|
26
口口口口 |①--②|
③①①⑥ |--③-|
③口口口 |-④--|
⑤⑤②④ |⑤--⑥|
27
③⑥②口 |--①-|
③④④⑤ |-②--|
口①①⑤ |③-④-|
口口口口 |⑤-⑥-|
28
口口②口 |①--②|
口口口口 |--③-|
口③口口
口口①口

口口口口
口口口口
④口⑥⑦ |④-⑤-|
口口⑤口 |⑥-⑦-|
29
④③②① |①-②-|
④⑤⑤① |③-④-|
口口口口 |⑤-⑥-|
口⑥⑦⑧ |⑦-⑧-|
30
⑤⑦⑥⑤ |①-②-|
④③②① |③-④-|
④口口① |⑤-⑥-|
口口口⑧ |⑦--⑧|
31
口口⑥⑥ |①---|
⑤②②口 |②--③|
⑦口口④ |④-⑤-|
③①口口 |⑥--⑦|
32
②口口口 |①-②-|
口口④① |③--④|
口③③口
口口口口

口⑤口口
⑦口口⑥
口口口口 |⑤---|
口口口口 |⑥--⑦|
33
口②①② |①---|
④口④口 |②---|
口口口③ |③---|
口口口口 |④---|
34
③口③口 |①-②-|
口②口口 |③--④|
口口①口
口口④口

口口口口
口口口口
口⑤⑦⑤ |⑤---|
⑥口口口 |⑥--⑦|
35
⑤口口② |①--②|
口①⑥⑧ |③--④|
⑦③口④ |⑤-⑥-|
口口口口 |⑦--⑧|
36
口⑥口口 |①-②-|
⑦口⑤口 |③--④|
口口口④ |⑤---|
①③口② |⑥--⑦|
37
口口口口 |①---|
口②②③ |②---|
口④④口 |③---|
口口①⑤ |④--⑤|
38
③口口口 |①-②-|
口②④口 |③--④|
①口口口
口口口口

口口口口
口⑦口口
口⑤⑥口 |⑤---|
口口口口 |⑥-⑦-|
39
口③①口 |①---|
口口口口 |②-③-|
口口口②
口口口口

口口⑤口
④口口⑥
⑤口口口 |④---|
口口口口 |⑤--⑥|
40
口口口口 |①-②-|
口①口口 |③--④|
口口②口
④③口口

口口口口
口口⑦口
口口⑥⑤ |⑤---|
口口口口 |⑥-⑦-|
41
口⑤①③ |①---|
②口⑤④ |②-③-|
口口口口 |④---|
口口口⑥ |⑤--⑥|
42
③口口口 |①-②-|
②口④⑦ |③--④|
①⑥口口 |⑤---|
⑤口口口 |⑥--⑦|
43
⑦口⑥口 |①---|
口①⑤口 |②--③|
③口④口 |④-⑤-|
口口②口 |⑥--⑦|
44
口⑤口④ |①-②-|
⑤口⑥① |③--④|
口②口③ |⑤---|
⑦口③口 |⑥--⑦|
45
口口口② |①---|
口口口② |②---|
④④①口 |③---|
口口③口 |④---|
46
③②①口 |①-②-|
口⑤口口 |③--④|
口口口口 |⑤---|
口口口④ |----|
47
口口⑧⑥ |①-②-|
⑤⑦口口 |③-④-|
口口④② |⑤-⑥-|
①③口口 |⑦-⑧-|
48
口口口口 |①-②-|
⑤⑤④② |③-④-|
①③⑥⑥ |⑤---|
口口口口 |⑥---|
49
⑥⑧口口 |①-②-|
口口⑦⑤ |③-④-|
②④口口 |⑤-⑥-|
口口③① |⑦-⑧-|
50
口口口口 |①-②-|
②④⑤⑤ |③-④-|
⑥⑥③① |⑤---|
口口口口 |⑥---|
51
口口⑧⑥ |①-②-|
⑤⑦口口 |③-④-|
口口④② |⑤-⑥-|
①③口口 |⑦-⑧-|
52
口口口口 |①-②-|
⑤⑤④② |③-④-|
①③⑥⑥ |⑤---|
口口口口 |⑥---|
53
⑥⑧口口 |①-②-|
口口⑦⑤ |③-④-|
②④口口 |⑤-⑥-|
口口③① |⑦-⑧-|
54
口⑤口① |①-②-|
②口⑤口 |③-④-|
口⑤口③ |⑤---|
④口⑤口 |----|

不確定度: 0

最終更新:2015年05月07日 16:06