フレッフレー♪熱血チアガール
裏マドンナだ!Primちゃん

BASIC

Level: 4
BPM: 195
Notes: 367

1
口口口口 |----|
口口口口 |----|
口口口口 |----|
口口口口 |----|
2
口口口口 |①---|
口口口口 |----|
口①①口 |----|
口口口口 |----|
3
口口口口 |①---|
口①①口 |②---|
④②②④ |③---|
③口口③ |④---|
4
④③②① |①---|
口口口口 |②---|
口口口口 |③---|
口口口口 |④---|
5
口口口口 |①---|
口②②口 |②---|
④①①④ |③---|
③口口③ |④---|
6
①②③④ |①---|
口口口口 |②---|
口口口口 |③---|
口口口口 |④---|
7
口口口口 |①---|
④③②① |②---|
口口口口 |③---|
口口口口 |④---|
8
口口口口 |①---|
口口口口 |②---|
④③②① |③---|
口口口口 |④---|
9
口口口口 |①---|
④③②① |②---|
口口口口 |③---|
口口口口 |④---|
10
口口口口 |①---|
口口口口 |②---|
④③②① |③---|
口口口口 |④---|
11
口口口口 |①---|
①②③④ |②---|
口口口口 |③---|
口口口口 |④---|
12
口口口口 |①---|
口口口口 |②---|
①②③④ |③---|
口口口口 |④---|
13
口口口口 |①---|
①②③④ |②---|
口口口口 |③---|
口口口口 |④---|
14
口口口口 |①---|
口口口口 |②---|
①②③④ |③---|
口口口口 |④---|
15
口口口口 |----|
口②口口 |①---|
口①③口 |②---|
口口口口 |--③-|
16
口口②口 |--①-|
口口①口 |--②-|
口口口口 |--③-|
③④口口 |--④-|
17
口③口口 |--①-|
口②口口 |--②-|
口①口④ |--③-|
口口口口 |--④-|
18
口口口口 |--①-|
口口口① |----|
口②②口 |②---|
口口口口 |----|
19
口口口口 |----|
口口口② |①---|
口③口① |②---|
口口口口 |--③-|
20
口②口口 |--①-|
口①口口 |--②-|
口口口口 |--③-|
口口④③ |--④-|
21
口口③口 |--①-|
口口②口 |--②-|
④口①口 |--③-|
口口口口 |--④-|
22
口口口口 |--①-|
①口口口 |----|
口②②口 |②---|
口口口口 |----|
23
口口口口 |----|
③口②① |①---|
口口口口 |②---|
口口口口 |③---|
24
口口口口 |①---|
③①口③ |②---|
口②②口 |----|
口口口口 |③---|
25
口口口口 |----|
口③③口 |①---|
口②②口 |②---|
口口①口 |③---|
26
②①①② |①---|
口口口口 |②---|
口③③口 |③---|
口④④口 |④---|
27
口口口口 |----|
③口②① |①---|
口口口口 |②---|
口口口口 |③---|
28
口口口口 |①---|
口①口口 |②---|
口②②口 |----|
口口口口 |----|
29
口口口口 |----|
口③③口 |①---|
口②②口 |②---|
口口①口 |③---|
30
②①①② |①---|
③口口③ |②---|
④口口④ |③---|
口口口口 |④---|
31
口口口口 |①---|
口口口口 |----|
口口口口 |②---|
①②口口 |----|
32
口口口口 |①---|
口口口口 |----|
口口口口 |②---|
口口①② |----|
33
口口口口 |①---|
口口口口 |----|
①②口口 |②---|
口口口口 |----|
34
口口口口 |①---|
①②③④ |②---|
口口口口 |③---|
口口口口 |④---|
35
口口口口 |----|
②口口口 |①---|
①口口口 |②---|
口口③口 |--③-|
36
口口口口 |--①-|
口口②口 |--②-|
口口①口 |--③-|
③④口口 |--④-|
37
口口④④ |--①-|
口②口口 |--②-|
口①③口 |--③-|
口口口口 |--④-|
38
①①口口 |----|
口③②口 |①---|
口口口口 |②---|
口口口口 |③---|
39
口口口口 |----|
口口口② |①---|
口口口① |②---|
口③口口 |--③-|
40
口口口口 |--①-|
口②口口 |--②-|
口①口口 |--③-|
口口④③ |--④-|
41
④④口口 |--①-|
口口②口 |--②-|
口③①口 |--③-|
口口口口 |--④-|
42
口口①① |----|
口②③口 |①---|
口口口口 |②---|
口口口口 |③---|
43
口口口口 |----|
②口口口 |①---|
①口口口 |②---|
口口③口 |--③-|
44
口口口口 |--①-|
口口②口 |--②-|
口口①口 |--③-|
③④口口 |--④-|
45
口口④④ |--①-|
口②口口 |--②-|
口①③口 |--③-|
口口口口 |--④-|
46
①①口口 |----|
口③②口 |①---|
口口口口 |②---|
口口口口 |③---|
47
口口口口 |----|
口口口② |①---|
口口口① |②---|
口③口口 |--③-|
48
口口口口 |--①-|
口②口口 |--②-|
口①口口 |--③-|
口口④③ |--④-|
49
④④口口 |--①-|
口口②口 |--②-|
口③①口 |--③-|
口口口口 |--④-|
50
口口①① |----|
口②③口 |①---|
口口口口 |②---|
口口口口 |③---|
51
①口口② |①---|
口口口口 |--②-|
口口口口 |----|
口口口口 |----|
52
口口口口 |①---|
①口口② |--②-|
口口口口 |----|
口口口口 |----|
53
①口口② |①---|
口口口口 |--②-|
口口口口 |----|
口口口口 |----|
54
口口口口 |①---|
口①①口 |----|
口②②口 |②---|
口口口口 |----|
55
④③②① |①---|
口口口口 |②---|
口口口口 |③---|
口口口口 |④---|
56
口口口口 |①---|
④③②① |②---|
口口口口 |③---|
口口口口 |④---|
57
口口口口 |①---|
口口口口 |②---|
④③②① |③---|
口口口口 |④---|
58
口口口口 |①---|
口口口口 |②---|
口口口口 |③---|
④③②① |④---|
59
口口口① |①---|
口口口② |----|
口口口口 |②---|
口口口口 |----|
60
口口口口 |①---|
口口口口 |----|
口口口① |②---|
口口口② |----|
61
口口①口 |①---|
口口②口 |----|
口口口口 |②---|
口口口口 |----|
62
口口口口 |①---|
口口口口 |----|
口口①口 |②---|
口口②口 |----|
63
口①口口 |①---|
口②口口 |----|
口口口口 |②---|
口口口口 |----|
64
口口口口 |①---|
口口口口 |----|
口①口口 |②---|
口②口口 |----|
65
①口口口 |①---|
②口口口 |----|
口口口口 |②---|
口口口口 |----|
66
口口口口 |①---|
口口口口 |----|
①口口口 |②---|
②口口口 |----|
67
口口③② |①---|
口口口③ |----|
口①①口 |②---|
口口口口 |③---|
68
口口口口 |----|
口口口口 |----|
口口口口 |----|
口口口口 |----|
69
口口口口 |①---|
口②②口 |----|
口①①口 |②---|
口口口口 |----|
70
①口口① |①---|
口口口③ |②---|
口口口② |③---|
④口口口 |--④-|
71
口口口口 |--①-|
②口口口 |--②-|
口①④口 |--③-|
口口口③ |--④-|
72
④④②口 |--①-|
口口口① |--②-|
口③口口 |--③-|
口口口口 |--④-|
73
口口口口 |----|
①口口① |①---|
口②②口 |②---|
口③③口 |③---|
74
口口口口 |----|
②口口口 |①---|
①口口口 |②---|
口口口③ |--③-|
75
口口口口 |--①-|
口口口② |--②-|
口④①口 |--③-|
③口口口 |--④-|
76
口②④④ |--①-|
①口口口 |--②-|
口口③口 |--③-|
口口口口 |--④-|
77
口口口口 |----|
①口口① |①---|
口②②口 |②---|
口③③口 |③---|
78
口口口口 |----|
口口口② |①---|
口口口① |②---|
③口口口 |--③-|
79
口口口口 |--①-|
②口口口 |--②-|
口①④口 |--③-|
口口口③ |--④-|
80
④④②口 |--①-|
口口口① |--②-|
口③口口 |--③-|
口口口口 |--④-|
81
口口口口 |----|
①口口① |①---|
口②②口 |②---|
口③③口 |③---|
82
口口口口 |----|
②口口口 |①---|
①口口口 |②---|
口口口③ |--③-|
83
口口口口 |--①-|
口口口② |--②-|
口④①口 |--③-|
③口口口 |--④-|
84
口②④④ |--①-|
①口口口 |--②-|
口口③口 |--③-|
口口口口 |--④-|
85
口口口口 |----|
①口口① |①---|
口②②口 |②---|
口③③口 |③---|
86
口①①口 |①---|
口②②口 |②---|
④口口④ |③---|
③口口③ |④---|
87
④③②① |①---|
口口口口 |②---|
口口口口 |③---|
口口口口 |④---|
88
口口口口 |①---|
口②②口 |②---|
④①①④ |③---|
③口口③ |④---|
89
①②③口 |①---|
口口口口 |②---|
口口口口 |③---|
口口口口 |----|
90
口口口口 |----|
口口口口 |----|
口口口口 |----|
口口口口 |----|
91
口口口口 |----|
口口口口 |----|
口口口口 |----|
口口口口 |----|
92
口口口口 |①---|
口口口口 |----|
口①①口 |②---|
口②②口 |----|
93
①口口口 |①---|
口口口口 |----|
口③口④ |②---③-|
口口口② |--④---|
94
口③口口 |①---②-|
口①口② |--③---|
⑤口⑥口 |④---⑤-|
口口④口 |----⑥-|
95
口口口口 |--①-|
①口口口 |----|
口②②口 |----|
口口口口 |-②--|
96
口口口口 |----|
口口口口 |①---|
口口口口 |----|
口①①口 |----|

不確定度: 0

最終更新:2015年05月07日 02:38