フレッフレー♪熱血チアガール
裏マドンナだ!Primちゃん

ADVANCED

Level: 8
BPM: 195
Notes: 643

1
口口口口 |----|
口口口口 |----|
口口口口 |----|
口口口口 |----|
2
①口口② |①-②-|
③口口④ |③-④-|
⑤口口⑥ |⑤-⑥-|
⑦口口⑧ |⑦-⑧-|
3
②口口③ |①---|
口①①口 |②-③-|
④口口⑤ |--④-|
⑥口口口 |⑤-⑥-|
4
口①口口 |①-②-|
⑥口②口 |③-④-|
口③口⑦ |⑤-⑥-|
⑧⑤④口 |⑦-⑧-|
5
③口口② |①---|
口①①口 |②-③-|
⑤口口④ |--④-|
口口口⑥ |⑤-⑥-|
6
口⑤④口 |①-②-|
口③口口 |③-④-|
口口②口 |⑤---|
口①口口 |----|
7
口口口口 |①-②-|
①口③口 |③-④-|
口②口④ |--⑤-|
口⑤⑤口 |----|
8
口④⑧口 |①-②-|
③⑦口口 |③-④-|
口②⑥口 |⑤-⑥-|
①⑤口口 |⑦-⑧-|
9
口口口口 |①-②-|
④口②口 |③-④-|
口③⑤① |--⑤-|
口⑥口口 |⑥---|
10
口口口口 |----|
口口口口 |----|
口口口口 |----|
口口口口 |----|
11
口口口口 |①-②-|
口③口① |③-④-|
④口②口 |--⑤-|
口⑤⑤口 |----|
12
口⑧④口 |①-②-|
口口⑦③ |③-④-|
口⑥②口 |⑤-⑥-|
口口⑤① |⑦-⑧-|
13
口口⑥口 |①-②-|
口②口④ |③-④-|
①口③口 |--⑤-|
口⑤口口 |⑥---|
14
口口口口 |----|
①口口② |①-②-|
③口口④ |③-④-|
⑤口口⑥ |⑤-⑥-|
15
口②②口 |----|
口口口口 |①---|
口①①口 |②---|
④口③口 |③-④-|
16
③口口口 |--①-|
②口口口 |--②-|
①口口口 |--③-|
口口口④ |--④-|
17
口口⑤口 |--①-|
口口④口 |②-③-|
口②③口 |--④-|
口口①口 |--⑤-|
18
口①口口 |--①-|
③口口② |--②-|
③口口② |③---|
口口口口 |----|
19
口②②口 |----|
口口口口 |①---|
口①①口 |②---|
口③口④ |③-④-|
20
口口口③ |--①-|
口口口② |--②-|
口口口① |--③-|
④口口口 |--④-|
21
口⑤口口 |--①-|
口④口口 |②-③-|
口③②口 |--④-|
口①口口 |--⑤-|
22
口口①口 |--①-|
②口口③ |--②-|
②口口③ |③---|
口口口口 |----|
23
口口口口 |----|
口④口口 |①-②-|
口口口口 |③---|
①②③口 |④---|
24
②⑦口① |①-②-|
④口⑥③ |③-④-|
口⑤口口 |--⑤-|
口口口口 |⑥-⑦-|
25
④口⑤⑤ |----|
口③口口 |①-②-|
口口②口 |③-④-|
口口口① |--⑤-|
26
口口口口 |--①-|
②②口口 |--②-|
⑤④③口 |--③-|
①①口口 |④-⑤-|
27
口口口口 |----|
口④④口 |①-②-|
口口口口 |③---|
口①②③ |④---|
28
①②③④ |①-②-|
口口口口 |③-④-|
口口口口 |----|
口口口口 |----|
29
②口口② |----|
口③④口 |①---|
口口口口 |②---|
口①①口 |③-④-|
30
⑦口口口 |--①-|
⑤口口⑥ |②-③-|
③口口④ |④-⑤-|
①口口② |⑥-⑦-|
31
口口口口 |----|
口口口口 |----|
口口口口 |----|
口口口口 |----|
32
口口①⑤ |----|
④口口口 |--①-|
口口口③ |②-③-|
②口口口 |④-⑤-|
33
口口口口 |①---|
口①口口 |----|
口口口口
口口口口

口口口口
口④口口
口口③口 |--②-|
口口口② |③-④-|
34
①口④④ |①---|
⑤⑤②② |②-③-|
③③口口 |--④-|
口口⑥⑥ |⑤-⑥-|
35
②②④④ |----|
口口口口 |①---|
③③口口 |②---|
①①口口 |③-④-|
36
④④口口 |--①-|
①①口口 |--②-|
口口②② |--③-|
口③③口 |--④-|
37
④④④④ |--①-|
口口①① |--②-|
②②口口 |--③-|
口③③口 |--④-|
38
口口口口 |--①-|
①⑤⑥② |②-③-|
口③④口 |④-⑤-|
⑦口口口 |⑥-⑦-|
39
④④②② |----|
口口口口 |①---|
口口③③ |②---|
口口①① |③-④-|
40
口口④④ |--①-|
口口①① |--②-|
②②口口 |--③-|
口③③口 |--④-|
41
④④④④ |--①-|
①①口口 |--②-|
口口②② |--③-|
口③③口 |--④-|
42
口口口口 |--①-|
②⑥⑤① |②-③-|
口④③口 |④-⑤-|
口口口⑦ |⑥-⑦-|
43
②④②④ |----|
口口口口 |①---|
③口③口 |②---|
①口①口 |③-④-|
44
④口④口 |--①-|
口①口① |--②-|
口②口② |--③-|
口口③③ |--④-|
45
④④④④ |--①-|
①口①口 |--②-|
②口②口 |--③-|
③口③口 |--④-|
46
口口口口 |--①-|
①⑤⑥② |②-③-|
口③④口 |④-⑤-|
⑦口口口 |⑥-⑦-|
47
④②④② |----|
口口口口 |①---|
口③口③ |②---|
口①口① |③-④-|
48
口④口④ |--①-|
①口①口 |--②-|
②口②口 |--③-|
③③口口 |--④-|
49
④④④④ |--①-|
口①口① |--②-|
口②口② |--③-|
口③口③ |--④-|
50
口口口口 |--①-|
②⑥⑤① |②-③-|
口④③口 |④-⑤-|
口口口⑦ |⑥-⑦-|
51
①③②④ |①-②-|
口口⑤口 |③-④-|
①⑥口④ |--⑤-|
口口⑦口 |⑥-⑦-|
52
口口口口 |①-②-|
①③⑤④ |③-④-|
口⑥②口 |--⑤-|
①口⑦④ |⑥-⑦-|
53
①口口④ |①-②-|
口③⑤口 |③-④-|
①⑥②④ |--⑤-|
口口⑦口 |⑥-⑦-|
54
⑤⑤②口 |①-②-|
①③口④ |③-④-|
口口②口 |⑤---|
①③口④ |----|
55
口口口口 |①-②-|
①口③口 |③-④-|
口②口④ |--⑤-|
口⑤⑥口 |⑥---|
56
口④⑧口 |①-②-|
③⑦口口 |③-④-|
口②⑥口 |⑤-⑥-|
①⑤口口 |⑦-⑧-|
57
⑥口口口 |①-②-|
④口②口 |③-④-|
口③口① |--⑤-|
口口⑤口 |⑥---|
58
口④①口 |--①-|
口②⑤口 |②-③-|
口⑥③口 |④-⑤-|
口口⑦口 |⑥-⑦-|
59
口口口口 |----|
①口口口 |①---|
口口②口 |②---|
③口口口 |③---|
60
口口口① |①-②-|
⑤口②口 |③-④-|
口⑥口③ |--⑤-|
⑦口④口 |⑥-⑦-|
61
②口口③ |----|
口①①口 |①---|
口④④口 |②-③-|
口口口口 |--④-|
62
口③口口 |--①-|
①口④② |②---|
口⑤口口 |③-④-|
口口⑥口 |⑤-⑥-|
63
口口④口 |--①-|
①⑤口② |②---|
③口⑥口 |③-④-|
口口口口 |⑤-⑥-|
64
③口口口 |--①-|
口④口口 |②---|
口口⑤口 |③-④-|
口①②⑥ |⑤-⑥-|
65
口口口③ |--①-|
口④①口 |②---|
口②⑤口 |③-④-|
口⑥口口 |⑤-⑥-|
66
口口①口 |①-②-|
②口口口 |③-④-|
口口口③ |----|
④口口口 |----|
67
口②③口 |①---|
②①①③ |----|
口①①口 |②---|
口口口口 |③---|
68
口口口口 |----|
③口口口 |----|
口口口② |--①-|
①口口口 |②-③-|
69
口②③① |①---|
⑤⑤⑥⑥ |②-③-|
口②③口 |--④-|
口口④④ |⑤-⑥-|
70
②②④④ |----|
口口口口 |①---|
③③口口 |②---|
①①口口 |③-④-|
71
④④口口 |--①-|
①①口口 |--②-|
口口②② |--③-|
口③③口 |--④-|
72
④④④④ |--①-|
口口①① |--②-|
②②口口 |--③-|
口③③口 |--④-|
73
口口口口 |--①-|
①⑤⑥② |②-③-|
口③④口 |④-⑤-|
⑦口口口 |⑥-⑦-|
74
④④②② |----|
口口口口 |①---|
口口③③ |②---|
口口①① |③-④-|
75
口口④④ |--①-|
口口①① |--②-|
②②口口 |--③-|
口③③口 |--④-|
76
④④④④ |--①-|
①①口口 |--②-|
口口②② |--③-|
口③③口 |--④-|
77
口口口口 |--①-|
②⑥⑤① |②-③-|
口④③口 |④-⑤-|
口口口⑦ |⑥-⑦-|
78
②④②④ |----|
口口口口 |①---|
③口③口 |②---|
①口①口 |③-④-|
79
④口④口 |--①-|
①口①口 |--②-|
口②口② |--③-|
口口③③ |--④-|
80
④④④④ |--①-|
口①口① |--②-|
②口②口 |--③-|
③口③口 |--④-|
81
口口口口 |--①-|
①⑤⑥② |②-③-|
口③④口 |④-⑤-|
⑦口口口 |⑥-⑦-|
82
④②④② |----|
口口口口 |①---|
口③口③ |②---|
口①口① |③-④-|
83
口④口④ |--①-|
口①口① |--②-|
②口②口 |--③-|
③③口口 |--④-|
84
④④④④ |--①-|
①口①口 |--②-|
口②口② |--③-|
口③口③ |--④-|
85
口口口口 |--①-|
②⑥⑤① |②-③-|
口④③口 |④-⑤-|
口口口⑦ |⑥-⑦-|
86
②口口③ |①---|
口口口口 |②-③-|
④口口⑤ |--④-|
⑥①①口 |⑤-⑥-|
87
口①口口 |①-②-|
⑥口②口 |③-④-|
口③口⑦ |⑤-⑥-|
⑧⑤④口 |⑦-⑧-|
88
③口口② |①---|
口①①口 |②-③-|
⑤口口④ |--④-|
口口口⑥ |⑤-⑥-|
89
口⑤④口 |①-②-|
口③口口 |③-④-|
口口②口 |⑤---|
口①口口 |----|
90
口口口口 |----|
口口口口 |----|
口口口口 |----|
口口口口 |----|
91
口口口口 |----|
口口口口 |----|
口口口口 |----|
口口口口 |----|
92
口②②口 |①---|
口口口口 |----|
口口口口 |②---|
口①①口 |----|
93
口口口口 |①---|
①③③① |----|
口口口口 |②---③-|
④②②④ |--④---|
94
①⑤⑤① |①---②-|
③口口③ |--③---|
⑥②②⑥ |④---⑤-|
口④④口 |----⑥-|
95
口口口口 |--①-|
②①①② |----|
②口口② |----|
口口口口 |-②--|
96
口①口口 |----|
口①①口 |①---|
口①①口 |----|
口口口口 |----|

不確定度: 0

最終更新:2015年05月07日 02:37