まるでマトリョーシカ
seiya-murai feat. ALT

BASIC

Level: 4
BPM: 155
Notes: 274

1
口口口口 |----|
口口口口 |----|
口口口口 |----|
口口口口 |----|
2
口口口口 |①---|
①②口口 |②---|
口口③④ |③---|
口口口口 |④---|
3
口③①口 |①---|
口④②口 |②---|
口口口口 |③---|
口口口口 |④---|
4
口口口口 |①---|
口口②① |②---|
④③口口 |③---|
口口口口 |④---|
5
口①③口 |①---|
口②④口 |②---|
口口口口 |③---|
口口口口 |④---|
6
口口口口 |①---|
①②口口 |②---|
口口③④ |③---|
口口口口 |④---|
7
口③①口 |①---|
口④②口 |②---|
口口口口 |③---|
口口口口 |④---|
8
口口口口 |①---|
口口②① |②---|
④③口口 |③---|
口口口口 |④---|
9
口①③口 |①---|
口②④口 |②---|
口口口口 |③---|
口口口口 |④---|
10
口口口口 |①---|
口口口口 |----|
①口口② |②---|
口口口口 |----|
11
口①①口 |①---|
口②②口 |②---|
口③③口 |③---|
口④④口 |④---|
12
口口口口 |①---|
②口口① |----|
口口口口 |②---|
口口口口 |----|
13
口口③口 |①---|
口②口口 |②---|
口口①口 |③---|
口口口口 |----|
14
口口口口 |①---|
口口口口 |----|
①口口② |②---|
口口口口 |----|
15
口①①口 |①---|
口②②口 |②---|
口③③口 |③---|
口④④口 |④---|
16
口口口口 |①---|
②口口② |----|
①口口① |②---|
口口口口 |----|
17
口①①口 |①---|
口②②口 |②---|
口③③口 |③---|
口口口口 |----|
18
①②口口 |①---|
口口口口 |----|
口口口口 |②---|
口口口口 |----|
19
口口①② |①---|
口口口口 |----|
口口口口 |②---|
口口口口 |----|
20
口口口口 |①---|
口①②口 |----|
口口口口 |②---|
口口口口 |----|
21
口口口口 |①---|
口口口口 |----|
口①②口 |②---|
口口口口 |----|
22
口口口口 |①---|
口口口口 |----|
口口口口 |②---|
①②口口 |----|
23
口口口口 |①---|
口口口口 |----|
口口口口 |②---|
口口①② |----|
24
口口口口 |①---|
口口口口 |----|
口①②口 |②---|
口口口口 |----|
25
口口口口 |①---|
口①②口 |----|
口口口口 |②---|
口口口口 |----|
26
①口口① |①---|
口②口口 |----|
口口②口 |②---|
口口口口 |----|
27
①口口① |①---|
口口②口 |----|
口②口口 |②---|
口口口口 |----|
28
口口口口 |①---|
①口③口 |②---|
口②口④ |③---|
口口口口 |④---|
29
口口口口 |①---|
口口口口 |----|
口②②口 |②---|
口①①口 |----|
30
①口口① |①---|
口②口口 |----|
口口②口 |②---|
口口口口 |----|
31
①口口① |①---|
口口②口 |----|
口②口口 |②---|
口口口口 |----|
32
口口口口 |①---|
①口③口 |②---|
口②口④ |③---|
口口口口 |④---|
33
口口口口 |①---|
口口口口 |----|
口②②口 |②---|
口①①口 |----|
34
①②③口 |①---|
口口口口 |②---|
口口口口 |③---|
口口口口 |----|
35
口口口口 |①---|
口③②① |②---|
口口口口 |③---|
口口口口 |----|
36
口口口口 |①---|
口口口口 |②---|
①②③口 |③---|
口口口口 |----|
37
口口口口 |①---|
口口口口 |②---|
口口口口 |③---|
口③②① |----|
38
③口口口 |①---|
②口口口 |②---|
①口口口 |③---|
口口口口 |----|
39
口口口口 |①---|
口①口口 |②---|
口②口口 |③---|
口③口口 |----|
40
口口③口 |①---|
口口②口 |②---|
口口①口 |③---|
口口口口 |----|
41
口口口口 |①---|
口口口① |②---|
口口口② |③---|
口口口③ |----|
42
①口口① |①---|
口②口口 |----|
口口②口 |②---|
口口口口 |----|
43
①口口① |①---|
口口②口 |----|
口②口口 |②---|
口口口口 |----|
44
口口口口 |①---|
①口③口 |②---|
口②口④ |③---|
口口口口 |④---|
45
口口口口 |①---|
口口口口 |----|
口②②口 |②---|
口①①口 |----|
46
①口口① |①---|
口②口口 |----|
口口②口 |②---|
口口口口 |----|
47
①口口① |①---|
口口②口 |----|
口②口口 |②---|
口口口口 |----|
48
口口口口 |①---|
①口③口 |②---|
口②口④ |③---|
口口口口 |④---|
49
口④④口 |①---|
口③③口 |②---|
口②②口 |③---|
口①①口 |④---|
50
①口口① |①---|
口③③口 |----|
口②②口 |②---|
口口口口 |③---|
51
①①口口 |①---|
口口③② |②---|
口口口口 |③---|
口口口口 |----|
52
①口口① |①---|
口②②口 |②---|
③口口③ |③---|
口④④口 |④---|
53
口口口口 |①---|
口①①口 |----|
口②②口 |②---|
口口口口 |----|
54
口口①口 |①---|
口②口口 |②---|
口口③口 |③---|
口口口口 |----|
55
口口①① |①---|
②③口口 |②---|
口口口口 |③---|
口口口口 |----|
56
口①①口 |①---|
②口口② |②---|
口③③口 |③---|
④口口④ |④---|
57
口口口口 |①---|
口①①口 |----|
口②②口 |②---|
口口口口 |----|
58
口①①口 |①---|
④②②④ |②---|
口③③口 |③---|
口口口口 |④---|
59
①②口口 |①---|
口口③④ |②---|
口口口口 |③---|
口口口口 |④---|
60
口口口口 |①---|
口口口口 |②---|
①②口口 |③---|
口口③④ |④---|
61
口口口口 |①---|
口④②口 |②---|
口③①口 |③---|
口口口口 |④---|
62
①口口① |①---|
②口口② |②---|
③口口③ |③---|
口口口口 |----|
63
口口②① |①---|
④③口口 |②---|
口口口口 |③---|
口口口口 |④---|
64
口口口口 |①---|
口口口口 |②---|
口口②① |③---|
④③口口 |④---|
65
口口口口 |①---|
口②①口 |②---|
口④③口 |③---|
口口口口 |④---|
66
①④④① |①---|
②口口② |②---|
③口口③ |③---|
口口口口 |④---|
67
口口口口 |①---|
口①①口 |②---|
④②②④ |③---|
③口口③ |④---|
68
口口口口 |①---|
①①①① |----|
口口口口 |----|
口口口口 |----|

不確定度: 0

最終更新:2015年05月07日 02:37