まるでマトリョーシカ
seiya-murai feat. ALT

ADVANCED

Level: 7
BPM: 155
Notes: 494

1
口口口口 |----|
口口口口 |----|
口口口口 |----|
口口口口 |----|
2
①②口口 |①-②-|
口口④③ |③-④-|
⑤⑥口口 |⑤-⑥-|
口口⑧⑦ |⑦-⑧-|
3
③口口口 |①-②-|
口①②口 |--③-|
口⑤④口 |④-⑤-|
口口口⑥ |--⑥-|
4
口口②① |①-②-|
③④口口 |③-④-|
口口⑥⑤ |⑤-⑥-|
⑦⑧口口 |⑦-⑧-|
5
口口口③ |①-②-|
口②①口 |--③-|
口④⑤口 |④-⑤-|
⑥口口口 |--⑥-|
6
口②①口 |①-②-|
口④③口 |③-④-|
口⑥⑤口 |⑤-⑥-|
口⑧⑦口 |⑦-⑧-|
7
③口②① |①-②-|
④⑤口⑥ |--③-|
口口口口 |④-⑤-|
口口口口 |--⑥-|
8
口⑦⑧口 |①-②-|
口⑤⑥口 |③-④-|
口③④口 |⑤-⑥-|
口①②口 |⑦-⑧-|
9
口⑤⑧口 |①-②-|
口⑥⑨口 |③-④-|
③⑦⑩④ |⑤⑥⑦-|
①口口② |⑧⑨⑩-|
10
①口口① |①---|
④④口口 |②-③-|
口⑥⑤口 |④---|
口②③口 |⑤-⑥-|
11
口口①① |①---|
口口②② |②---|
口口③③ |③---|
口口④④ |④---|
12
①①⑥⑥ |①---|
⑤口②口 |②-③-|
口③口④ |④-⑤-|
口口口口 |⑥---|
13
①③口口 |①---|
口口②口 |②---|
口②口口 |③---|
口口③① |----|
14
①口口① |①---|
④④口口 |②-③-|
口⑥⑤口 |④---|
口②③口 |⑤-⑥-|
15
口口①① |①---|
口口②② |②---|
口口③③ |③---|
口口④④ |④---|
16
①①口口 |①--②|
口③②口 |③-④-|
口口口④
口口口口

口⑦口口
⑦口口⑥
⑤口口口 |⑤-⑥-|
口口口口 |⑦---|
17
③⑤⑤③ |①-②-|
⑥①①⑥ |③-④-|
⑥②②⑥ |⑤---|
④口口④ |⑥---|
18
②口口① |①---|
口口③口 |②--③|
口口口口
口口口口

口口口⑤
口④口口
口⑥口口 |④---|
口口口口 |⑤--⑥|
19
口口口口 |①---|
②口口口 |②--③|
口口①口 |④---|
口④③口 |----|
20
①口口② |①---|
口③④口 |②--③|
口口口口 |④---|
口口口口 |----|
21
口口口口 |①---|
口口口口 |②--③|
口④③口 |④---|
②口口① |----|
22
②口口① |①---|
口口③口 |②--③|
口口口口
口口口口

口口口⑤
口④口口
口⑥口口 |④---|
口口口口 |⑤--⑥|
23
口口口口 |①---|
②口口口 |②--③|
口口①口 |④---|
口④③口 |----|
24
①口口② |①---|
口③④口 |②--③|
口口口口 |④---|
口口口口 |----|
25
口口口口 |①---|
口口口口 |②--③|
口④③口 |④---|
②口口① |----|
26
口口③口 |①-②-|
②④口① |--③-|
②口⑤① |④-⑤-|
口口口口 |----|
27
口③口口 |①-②-|
①口④② |--③-|
①⑤口② |④-⑤-|
口口口口 |----|
28
②口口④ |①---|
口①③口 |②---|
口③①口 |③---|
④口口② |④---|
29
口②口口 |①---|
①口③① |--②-|
①④口① |③-④-|
口⑥⑤口 |⑤-⑥-|
30
口口③口 |①-②-|
②④口① |--③-|
②口⑤① |④-⑤-|
口口口口 |----|
31
口③口口 |①-②-|
①口④② |--③-|
①⑤口② |④-⑤-|
口口口口 |----|
32
②口口④ |①---|
口①③口 |②---|
口③①口 |③---|
④口口② |④---|
33
口口口口 |①---|
①③②① |--②-|
①③②① |③---|
口口口口 |----|
34
②口口① |①---|
口口③口 |②--③|
口口口口
口口口口

口口口⑤
口④口口
口⑥口口 |④---|
口口口口 |⑤--⑥|
35
口口口口 |①---|
②口口口 |②--③|
口口①口 |④---|
口④③口 |----|
36
①口口② |①---|
口③④口 |②--③|
口口口口 |④---|
口口口口 |----|
37
口口口口 |①---|
口口口口 |②--③|
口④③口 |④---|
②口口① |----|
38
②口口① |①---|
口口③口 |②--③|
口口口口
口口口口

口口口⑤
口④口口
口⑥口口 |④---|
口口口口 |⑤--⑥|
39
口口口口 |①---|
②口口口 |②--③|
口口①口 |④---|
口④③口 |----|
40
①口口② |①---|
口③④口 |②--③|
口口口口 |④---|
口口口口 |----|
41
口口口口 |①---|
口口口口 |②--③|
口④③口 |④---|
②口口① |----|
42
口口③口 |①-②-|
②④口① |--③-|
②口⑤① |④-⑤-|
口口口口 |----|
43
口③口口 |①-②-|
①口④② |--③-|
①⑤口② |④-⑤-|
口口口口 |----|
44
②口口④ |①---|
口①③口 |②---|
口③①口 |③---|
④口口② |④---|
45
口②口口 |①---|
①口③① |--②-|
①④口① |③-④-|
口⑥⑤口 |⑤-⑥-|
46
口口③口 |①-②-|
②④口① |--③-|
②口⑤① |④-⑤-|
口口口口 |----|
47
口③口口 |①-②-|
①口④② |--③-|
①⑤口② |④-⑤-|
口口口口 |----|
48
②口口④ |①---|
口①③口 |②---|
口③①口 |③---|
④口口② |④---|
49
②②⑦⑦ |①-②-|
④④⑤⑤ |③-④-|
⑥⑥③③ |⑤-⑥-|
⑧⑧①① |⑦-⑧-|
50
口口④口 |①---|
口③口口 |----|
口口②口 |②-③-|
口口①① |④---|
51
口口口口 |①---|
口口④① |②-③-|
口⑥④① |④---|
②③⑤口 |⑤-⑥-|
52
口①①口 |①---|
②口口② |②---|
④口口④ |③---|
口③③口 |④---|
53
口①①口 |①---|
②③口口 |②-③-|
口口口口
口口口口

口⑥⑥口
口口④⑤
口口口口 |④-⑤-|
口口口口 |⑥---|
54
口口口① |①---|
①③③口 |②---|
口③③② |③---|
②口口口 |----|
55
口口口口 |①---|
口口口① |②-③-|
口口口①
②③口口

口口口口
口口④口
⑥口④⑤ |④---|
口口口口 |⑤-⑥-|
56
②口口① |①---|
口①②口 |②---|
口③④口 |③---|
④口口③ |④---|
57
口①①口 |①--②|
口③②口 |③-④-|
口口口④
口口口口

口⑦口口
⑦口口⑥
⑤口口口 |⑤-⑥-|
口口口口 |⑦---|
58
③口口③ |①-②-|
口①①口 |③-④-|
口②②口
④口口④

口⑤⑤口
口⑥⑥口
口口口口 |⑤---|
口口口口 |⑥---|
59
口口口口 |①---|
口口④① |②-③-|
口⑥④① |④---|
②③⑤口 |⑤-⑥-|
60
口①①口 |①---|
②口口② |②---|
④口口④ |③---|
口③③口 |④---|
61
①口口① |①--②|
口③②口 |③-④-|
口口口口
口口口④

⑦口口口
口口口⑥
⑤口口口 |⑤-⑥-|
口口口口 |⑦---|
62
口口口① |①---|
①③③口 |②---|
口③③② |③---|
②口口口 |----|
63
口口口口 |①---|
口口口① |②-③-|
口口口①
②③口口

口口口口
口口④口
⑥口④⑤ |④---|
口口口口 |⑤-⑥-|
64
②口口① |①---|
口①②口 |②---|
口③④口 |③---|
④口口③ |④---|
65
口①①口 |①--②|
口③②口 |③-④-|
口口口④
口口口口

口⑦口口
⑦口口⑥
⑤口口口 |⑤-⑥-|
口口口口 |⑦---|
66
③口口③ |①-②-|
口①①口 |③-④-|
口②②口
④口口④

口⑤⑤口
口⑥⑥口
口⑦⑦口 |⑤---|
口口口口 |⑥-⑦-|
67
①③③① |①-②-|
⑤④④⑤ |③---|
⑤口口⑤ |④---|
②④④② |⑤---|
68
①①①① |①---|
口口口口 |----|
口口口口 |----|
口口口口 |----|

不確定度: 0

最終更新:2015年05月07日 02:37