Reflection
加藤浩義

BASIC

Level: 2
BPM: 135
Notes: 262

1
口口口口 |----|
口口口口 |----|
口口口口 |----|
口口口口 |----|
2
口口口口 |①---|
口①①口 |----|
口口口口 |----|
口口口口 |----|
3
口口口口 |----|
口口口口 |----|
口口口口 |----|
口口口口 |----|
4
口口口口 |①---|
口①①口 |----|
口口口口 |----|
口口口口 |----|
5
口口口口 |----|
口口口口 |----|
口口口口 |----|
口口口口 |----|
6
口口口口 |①---|
①口口① |----|
口口口口 |----|
口口口口 |----|
7
口口口口 |----|
口口口口 |----|
口口口口 |----|
口口口口 |----|
8
口口口口 |①---|
①口口① |----|
口口口口 |----|
口口口口 |----|
9
口口口口 |----|
口口口口 |----|
口口口口 |----|
口口口口 |----|
10
口口口口 |①---|
①②③④ |②---|
口口口口 |③---|
口口口口 |④---|
11
口口口口 |①---|
口口口口 |②---|
①②③④ |③---|
口口口口 |④---|
12
口①口口 |①---|
口②口口 |②---|
口③口口 |③---|
口④口口 |④---|
13
口口①口 |①---|
口口②口 |②---|
口口③口 |③---|
口口④口 |④---|
14
口口口口 |①---|
①②③④ |②---|
口口口口 |③---|
口口口口 |④---|
15
口口口口 |①---|
口口口口 |②---|
①②③④ |③---|
口口口口 |④---|
16
口①口口 |①---|
口②口口 |②---|
口③口口 |③---|
口④口口 |④---|
17
口口①口 |①---|
口口②口 |②---|
口口③口 |③---|
口口④口 |④---|
18
口口口口 |①---|
①①②② |----|
口口口口 |②---|
口口口口 |----|
19
口口口口 |①---|
口口口口 |----|
①①②② |②---|
口口口口 |----|
20
口口口口 |①---|
①口口② |----|
①口口② |②---|
口口口口 |----|
21
口口口口 |①---|
口①②口 |----|
口①②口 |②---|
口口口口 |----|
22
①①②② |①---|
口口口口 |----|
口口口口 |②---|
口口口口 |----|
23
口口口口 |①---|
①①②② |----|
口口口口 |②---|
口口口口 |----|
24
口口口口 |①---|
口口口口 |----|
①①②② |②---|
口口口口 |----|
25
口口口口 |①---|
口口口口 |----|
口口口口 |②---|
①①②② |----|
26
口口口口 |①---|
口②②口 |----|
口①①口 |②---|
口口口口 |----|
27
口口口口 |①---|
②口口② |----|
①口口① |②---|
口口口口 |----|
28
口①①口 |①---|
口②②口 |----|
口口口口 |②---|
口口口口 |----|
29
①口口① |①---|
②口口② |----|
口口口口 |②---|
口口口口 |----|
30
口口口口 |①---|
口口口口 |----|
口②②口 |②---|
口①①口 |----|
31
口口口口 |①---|
口口口口 |----|
②口口② |②---|
①口口① |----|
32
口口口口 |①---|
口②②口 |----|
口①①口 |②---|
口口口口 |----|
33
口口口口 |①---|
②口口② |----|
①口口① |②---|
口口口口 |----|
34
口②①口 |①---|
口口口口 |----|
口口口口 |②---|
口口口口 |----|
35
口口口口 |①---|
口②①口 |----|
口口口口 |②---|
口口口口 |----|
36
口口口口 |①---|
口口口口 |----|
口②①口 |②---|
口口口口 |----|
37
口口口口 |①---|
口口口口 |----|
口口口口 |②---|
口②①口 |----|
38
口口口口 |①---|
口口口口 |----|
口口口口 |②---|
②口口① |----|
39
口口口口 |①---|
口口口口 |----|
②口口① |②---|
口口口口 |----|
40
口口口口 |①---|
②口口① |----|
口口口口 |②---|
口口口口 |----|
41
②口口① |①---|
口口口口 |----|
口口口口 |②---|
口口口口 |----|
42
口口①口 |①---|
口口②口 |②---|
口口③口 |③---|
口口④口 |④---|
43
口④口口 |①---|
口③口口 |②---|
口②口口 |③---|
口①口口 |④---|
44
口口口口 |①---|
④③②① |②---|
口口口口 |③---|
口口口口 |④---|
45
口口口口 |①---|
口口口口 |②---|
①②③④ |③---|
口口口口 |④---|
46
口口口口 |①---|
④③②① |②---|
口口口口 |③---|
口口口口 |④---|
47
口口口口 |①---|
口口口口 |②---|
①②③④ |③---|
口口口口 |④---|
48
口①口口 |①---|
口②口口 |②---|
口③口口 |③---|
口④口口 |④---|
49
口口④口 |①---|
口口③口 |②---|
口口②口 |③---|
口口①口 |④---|
50
①①口② |①---|
③③口④ |②---|
口口口口 |③---|
口口口口 |④---|
51
口口口口 |①---|
口口口口 |②---|
①①口② |③---|
③③口④ |④---|
52
①①②口 |①---|
③③口④ |②---|
口口口口 |③---|
口口口口 |④---|
53
口口口口 |①---|
口口口口 |②---|
①①②口 |③---|
③③口④ |④---|
54
②口①① |①---|
④口③③ |②---|
口口口口 |③---|
口口口口 |④---|
55
口口口口 |①---|
口口口口 |②---|
②口①① |③---|
④口③③ |④---|
56
口②①① |①---|
④口③③ |②---|
口口口口 |③---|
口口口口 |④---|
57
口口口口 |①---|
口口口口 |②---|
口②①① |③---|
④口③③ |④---|
58
口①口① |①---|
口②口口 |②---|
口③口③ |③---|
口④口口 |④---|
59
口口④口 |①---|
③口③口 |②---|
口口②口 |③---|
①口①口 |④---|
60
①口口① |①---|
②口口口 |②---|
③口口③ |③---|
④口口口 |④---|
61
口口④口 |①---|
口③③口 |②---|
口口②口 |③---|
口①①口 |④---|
62
②口口① |①---|
②口口① |②---|
④口口③ |③---|
④口口③ |④---|
63
②②①① |①---|
④④③③ |②---|
口口口口 |③---|
口口口口 |④---|
64
口口口口 |①---|
口口口口 |②---|
④④③③ |③---|
②②①① |④---|
65
④②②④ |①---|
③①①③ |②---|
口口口口 |③---|
口口口口 |④---|
66
口口口口 |①---|
口①①口 |----|
口口口口 |----|
口口口口 |----|
67
口口口口 |①---|
口口口口 |----|
口口①口 |----|
口口口口 |----|
68
口口口口 |①---|
口口口口 |----|
口①口口 |----|
口口口口 |----|
69
口口口口 |①---|
口口口口 |----|
口口口口 |----|
口口①口 |----|
70
口口口口 |①---|
口口口口 |----|
口口口口 |----|
口①口口 |----|

不確定度: 0

最終更新:2015年05月07日 02:29