Jailbreak
Kozo Nakamura

BASIC

Level: 5
BPM: 250
Notes: 342

1
口口口口 |----|
口口口口 |----|
口口口口 |----|
口口口口 |----|
2
口口①口 |①---|
口②口口 |②---|
口口③口 |③---|
口口口口 |----|
3
口口口口 |①---|
口口口③ |----②-|
口口口口 |----|
①口②口 |----③-|
4
口口口口 |----|
③②①口 |①---|
口口口口 |②---|
口口口口 |③---|
5
①②③④ |①---|
口口口口 |②---|
口口口口 |③---|
口口口口 |④---|
6
口口口口 |①---|
④③②① |②---|
口口口口 |③---|
口口口⑤ |④---⑤-|
7
口口口口 |----|
口口口② |----①-|
口口口口 |----|
口①口口 |----②-|
8
口口口口 |----|
③②①口 |①---|
口口口口 |②---|
口口口口 |③---|
9
①②③④ |①---|
口口口口 |②---|
口口口口 |③---|
口口口口 |④---|
10
口口口⑤ |①---|
④③②① |②---|
口口口口 |③---|
口口口口 |④---⑤-|
11
口①口口 |----|
口口口口 |----①-|
②口口口 |----|
口口口口 |----②-|
12
口口口口 |----|
口口口口 |①---|
口①②③ |②---|
口口口口 |③---|
13
口口口口 |①---|
口口口口 |②---|
口口口口 |③---|
④③②① |④---|
14
⑤口口口 |①---|
口口口口 |②---|
①②③④ |③---|
口口口口 |④---⑤-|
15
口口①口 |----|
口口口口 |----①-|
②口口口 |----|
口口口口 |----②-|
16
口口口口 |----|
口口口口 |①---|
口①②③ |②---|
口口口口 |③---|
17
口口口口 |①---|
口口口口 |②---|
口口口口 |③---|
④③②① |④---|
18
口口口口 |①---|
口口口口 |②---|
①②③④ |③---|
口口口口 |④---|
19
口口口口 |①---|
口①①口 |----|
口口口口 |----|
口口口口 |----|
20
口①①口 |①---|
口口口口 |----|
口口口口 |----|
口口口口 |----|
21
口口口口 |①---|
口①①口 |----|
口口口口 |----|
口口口口 |----|
22
口①①口 |①---|
口口口口 |----|
口口口口 |----|
口口口口 |----|
23
口口口口 |①---|
②④口口 |②---|
①③口口 |③---|
口口口口 |④---|
24
口口口口 |①---|
口口④② |②---|
口口③① |③---|
口口口口 |④---|
25
口①①口 |①---|
口口口口 |----|
口口口口 |----|
口口口口 |----|
26
口口口口 |----|
①口口① |①---|
②口口② |②---|
口口口口 |----|
27
口口口口 |①---|
口口口口 |----|
口口口口 |②---|
口①②口 |----|
28
口②③口 |①---|
口口口口 |----②-|
口①①口 |----③-|
口口口口 |----|
29
口口口口 |①---|
口口口口 |----|
口口口口 |②---|
口①②口 |----|
30
口口口口 |①---|
①②③④ |②---|
口口口口 |③---|
口口口口 |④---|
31
口口口口 |①---|
口口口口 |----|
口口口口 |②---|
口①②口 |----|
32
口②③口 |①---|
口口口口 |----②-|
口①①口 |----③-|
口口口口 |----|
33
口口口口 |①---|
口口口口 |----|
口口口口 |②---|
口①②口 |----|
34
口口口口 |①---|
①②③④ |②---|
口口口口 |③---|
口口口口 |④---|
35
口口口口 |①---|
口口口口 |----|
口口口口 |②---|
口①②口 |----|
36
口②③口 |①---|
口口口口 |----②-|
口①①口 |----③-|
口口口口 |----|
37
口口口口 |①---|
口口口口 |----|
口口口口 |②---|
口①②口 |----|
38
口口口口 |①---|
④③②① |②---|
口口口口 |③---|
口口口口 |④---|
39
口口口口 |①---|
口口口口 |----|
口口口口 |②---|
口①②口 |----|
40
口②③口 |①---|
口口口口 |----②-|
口①①口 |----③-|
口口口口 |----|
41
口口口口 |①---|
口口口口 |----|
口口口口 |②---|
口①②口 |----|
42
口口口口 |①---|
④③②① |②---|
口口口口 |③---|
口口口口 |④---|
43
口口口口 |①---|
口口口口 |----|
口口口口 |----|
口①口口 |----|
44
①①口口 |----|
①①口口 |-----①--|
口口口口 |----|
口口口口 |----|
45
口口①口 |①---|
口口口口 |----|
口口口口 |----|
口口口口 |----|
46
口口口口 |----|
口口口口 |-----①--|
口口①① |----|
口口①① |----|
47
口口口口 |①---|
口口口口 |----|
①①口口 |----|
口口口口 |----|
48
口口口口 |①---|
口口口口 |----|
口口①① |----|
口口口口 |----|
49
口①②口 |----①-|
口③④口 |--②---|
口⑤口口 |③---④-|
口口口口 |--⑤---|
50
口②②口 |①---|
口口口口 |----|
口口①口 |②---|
口口口口 |----|
51
口口口口 |①---|
口②②口 |----②-|
口口口口 |----|
口①口口 |----|
52
口口口口 |----|
口口口口 |----|
口口口口 |----|
口口口口 |----|
53
口口口口 |①---|
口②②口 |----②-|
口口口口 |----|
口口①口 |----|
54
口口口口 |----|
口口口口 |----|
口口口口 |----|
口口口口 |----|
55
口②②口 |①---|
口口口口 |----②-|
口①口口 |----|
口口口口 |----|
56
口口口口 |----|
口口口口 |----|
口口口口 |----|
口口口口 |----|
57
口②②口 |①---|
口口口口 |----②-|
口口①口 |----|
口口口口 |----|
58
口口口口 |----|
口口口口 |----|
口口口口 |----|
口口口口 |----|
59
口口口口 |①---|
①口口① |----|
口口口口 |----|
口口口口 |----|
60
口口口口 |----|
口口口口 |----|
口口口口 |----|
口口口口 |----|
61
口口口口 |①---|
①②③④ |②---|
口口口口 |③---|
口口口口 |④---|
62
口口口口 |①---|
口口口口 |②---|
④③②① |③---|
口口口口 |④---|
63
口②②口 |①---|
①③③口 |----②-|
口口口口 |----|
口口口口 |----③-|
64
口口口口 |----|
口口口口 |----①-|
口①①口 |----|
口口口口 |----|
65
口口口口 |①---|
口口口口 |----|
②③③② |②---|
①口口① |----③-|
66
口①①口 |----|
口口口口 |----|
口口口口 |①---|
口口口口 |----|
67
口口口口 |①---|
口口口口 |②---|
②④口口 |③---|
①③口口 |④---|
68
口口口口 |①---|
口口口口 |②---|
口口④② |③---|
口口③① |④---|
69
口①②口 |①---|
口③④口 |②---|
口口口口 |③---|
口口口口 |④---|
70
口口口口 |①---|
口口口口 |②---|
口①②口 |③---|
口③④口 |④---|
71
口口口口 |①---|
口口口口 |②---|
③口口④ |③---|
①口口② |④---|
72
③口口④ |①---|
①口口② |②---|
口口口口 |③---|
口口口口 |④---|
73
口①②口 |①---|
口口口口 |②---|
口③④口 |③---④-|
⑤口口⑤ |----⑤-|
74
口口口口 |----|
口口口口 |----|
口口口口 |----|
口口口口 |----|
75
①口口口 |①---|
②口口口 |②---|
③口口口 |③---|
④口口口 |④---|
76
口口口④ |①---|
口口口③ |②---|
口口口② |③---|
口口口① |④---|
77
口④口口 |①---|
口③口口 |②---|
口②口口 |③---|
口①口口 |④---|
78
口口①口 |①---|
口口②口 |②---|
口口③口 |③---|
口口④口 |④---|
79
口口口口 |①---|
口口口口 |----|
口口口口 |----|
口①口口 |----|
80
口①②口 |①---②-|
口③④口 |--③---|
口⑤⑥口 |④---⑤-|
口口口口 |--⑥---|
81
口口口口 |①---|
口口口口 |----|
口口口口 |----|
①口口① |----|
82
口口口口 |①---|
①口口① |----|
口口口口 |----|
口口口口 |----|
83
口口口口 |①---|
口口口口 |----|
口口口口 |----|
①口口① |----|
84
口口口口 |①---|
口口口口 |----|
口口口口 |----|
口①①口 |----|
85
口口口口 |①---|
口口口口 |----|
口①①口 |----|
口口口口 |----|
86
口口口口 |①---|
口①①口 |----|
口口口口 |----|
口口口口 |----|
87
口⑤④口 |①---②-|
口③⑥口 |--③---|
口口②口 |④---⑤-|
口①口口 |--⑥---|
88
口口口口 |①---|
②口口② |----|
口①口口 |②---|
口口口口 |----|
89
口口口口 |①---|
口口口③ |----|
口口口口 |②---|
①口②口 |----③-|
90
口口口口 |----|
③②①口 |①---|
口口口口 |②---|
口口口口 |③---|
91
①②③④ |①---|
口口口口 |②---|
口口口口 |③---|
口口口口 |④---|
92
口口口口 |①---|
④③②① |②---|
口口口口 |③---|
口口口⑤ |④---⑤-|
93
口口口口 |----|
口口口② |----①-|
口口口口 |----|
口①口口 |----②-|
94
口口口口 |----|
③②①口 |①---|
口口口口 |②---|
口口口口 |③---|
95
①②③④ |①---|
口口口口 |②---|
口口口口 |③---|
口口口口 |④---|
96
口口口⑤ |①---|
④③②① |②---|
口口口口 |③---|
口口口口 |④---⑤-|
97
口①口口 |----|
口口口口 |----①-|
②口口口 |----|
口口口口 |----②-|
98
口口口口 |----|
口口口口 |①---|
口①②③ |②---|
口口口口 |③---|
99
口口口口 |①---|
口口口口 |②---|
口口口口 |③---|
④③②① |④---|
100
⑤口口口 |①---|
口口口口 |②---|
①②③④ |③---|
口口口口 |④---⑤-|
101
口口①口 |----|
口口口口 |----①-|
口口口口 |----|
口口口口 |----|
102
口口口口 |①---|
口口口口 |②---|
①②③④ |③---|
口口口口 |④---|
103
口口口口 |①---|
口口口口 |②---|
口口口口 |③---|
④③②① |④---|
104
口口口口 |①---|
口口口口 |②---|
①②③④ |③---|
口口口口 |④---|
105
口口口口 |①---|
口口口口 |----|
口口口口 |----|
口①口口 |----|
106
①①口口 |----|
①①口口 |-----①--|
口口口口 |----|
口口口口 |----|
107
口口①口 |①---|
口口口口 |----|
口口口口 |----|
口口口口 |----|
108
口口口口 |----|
口口口口 |-----①--|
口口①① |----|
口口①① |----|
109
口口口口 |①---|
①口口口 |----|
①口口口 |----|
口口口口 |----|
110
口口口口 |①---|
口口口① |----|
口口口① |----|
口口口口 |----|
111
口口口口 |①---|
口口口口 |----|
口②②口 |②---|
口①①口 |----|
112
②②②② |①---|
口①①口 |----|
口口口口 |②---|
口口口口 |----|


不确定度: 0

タグ:

+ タグ編集
  • タグ:

このサイトはreCAPTCHAによって保護されており、Googleの プライバシーポリシー利用規約 が適用されます。

最終更新:2012年11月10日 13:54