Reflection
加藤浩義

ADVANCED

Level: 6
BPM: 135
Notes: 436

1
口口口口 |----|
口口口口 |----|
口口口口 |----|
口口口口 |----|
2
口口口口 |①---|
口④②口 |②-③-|
口③口口 |----|
口①①口 |--④-|
3
口口口口 |----|
口①口口 |----|
口口口口 |----|
口口口口 |--①-|
4
口③②① |①--②|
口口口口 |--③-|
口口口口 |----|
口口口口 |----|
5
口口口口 |①--②|
①②③口 |--③-|
口口口口 |----|
口口口口 |----|
6
口口口口 |----|
口口口口 |----|
口口口口 |----|
口口口口 |----|
7
口口口口 |①---|
口①①口 |----|
口口口口
口口口口

口口口口
口口②口
口③口口 |--②-|
口口口口 |--③-|
8
口③②① |①--②|
口口口口 |--③-|
口口口口 |----|
口口口口 |----|
9
口口口口 |----|
口口口口 |----|
口口口口 |----|
口口口口 |----|
10
口口口④ |①---|
口口口③ |②---|
口口口② |③---|
①口口① |④---|
11
口口①口 |①---|
口口②口 |②---|
③④⑤口 |③--④|
③④⑤口 |--⑤-|
12
①口口口 |①---|
②口口口 |②---|
③口口口 |③---|
④口口口 |④---|
13
口口口口 |①---|
口③口口 |②---|
口②⑤④ |③--④|
口①⑤④ |--⑤-|
14
口口口口 |-①--|
口口口口 |----|
口①口② |②---|
口①口③ |③---|
15
口口口口 |①---|
口口口口 |②---|
③口②口 |③---|
③口①口 |----|
16
口口口① |--①-|
口口口① |----|
②口口口 |②---|
③口口口 |③---|
17
口口口口 |①---|
口口口口 |----|
口口口① |----|
口口口① |----|
18
②口①① |①---|
④口口③ |②---|
口⑤⑤口 |③---|
口口口口 |④-⑤-|
19
口口口口 |----|
口口口口 |①---|
①口口口 |②---|
③口口② |③---|
20
口口口口 |①--②|
⑤口③④ |--③-|
口②口口 |④---|
口口①口 |⑤---|
21
口口口口 |①---|
口口口口 |②---|
②口口① |③---|
④口口③ |④---|
22
口口①口 |①--②|
⑤②口④ |--③-|
口口③口 |④---|
口口口口 |⑤---|
23
口口口口 |①---|
口口口口 |②---|
②口口① |③---|
④口口③ |④---|
24
口口①④ |①--②|
⑤②口④ |--③-|
口口③口 |④---|
口口口口 |⑤---|
25
口口口口 |①---|
口口口口 |②---|
②口口① |③---|
④口口③ |④---|
26
口②②口 |①--②|
口⑤④③ |-③④⑤|
口口口口
口①①口

口口口口
口口口口
口⑥⑥口 |---⑥|
⑦⑧⑨口 |-⑦⑧⑨|
27
口①①口 |---①|
口④③② |-②③④|
口⑤⑤口 |---⑤|
⑥⑦⑧口 |-⑥⑦⑧|
28
口①①口 |---①|
口④③② |-②③④|
口⑤⑤口 |---⑤|
⑥⑦⑧口 |-⑥⑦⑧|
29
口①①口 |---①|
口④③② |-②③④|
口⑤⑤口 |---⑤|
⑥⑦⑧口 |-⑥⑦⑧|
30
①①⑤⑤ |---①|
⑥口口② |-②③④|
⑦口口③ |---⑤|
⑧口口④ |-⑥⑦⑧|
31
①①⑤⑤ |---①|
⑥口口② |-②③④|
⑦口口③ |---⑤|
⑧口口④ |-⑥⑦⑧|
32
①①⑤⑤ |---①|
⑥口口② |-②③④|
⑦口口③ |---⑤|
⑧口口④ |-⑥⑦⑧|
33
①①口口 |---①|
口口口② |-②③④|
口⑤⑤③ |⑤---|
口口口④ |----|
34
①口口② |①-②-|
口③③口 |③--④|
口⑥⑥口 |-⑤-⑥|
⑤口口④ |----|
35
①口口② |①-②-|
口③③口 |③--④|
口⑥⑥口 |-⑤-⑥|
⑤口口④ |----|
36
①口口口 |①-②-|
②口③③ |③--④|
⑥⑥口⑤ |-⑤-⑥|
口口口④ |----|
37
①口口口 |①-②-|
②口③③ |③--④|
⑥⑥口⑤ |-⑤-⑥|
口口口④ |----|
38
口①②口 |①-②-|
③口口③ |③--④|
⑥口口⑥ |-⑤-⑥|
口④⑤口 |----|
39
口①②口 |①-②-|
③口口③ |③--④|
⑥口口⑥ |-⑤-⑥|
口④⑤口 |----|
40
口口口① |①-②-|
③③口② |③--④|
⑤口⑥⑥ |-⑤-⑥|
④口口口 |----|
41
口口口① |①-②-|
③③口② |③--④|
⑤口⑥⑥ |-⑤-⑥|
④口口口 |----|
42
①口口口 |①---|
②口口口 |②---|
③口④口 |③--④|
口⑥⑤口 |--⑤⑥|
43
口口口① |①---|
口口口② |②---|
口④口③ |③--④|
口⑤⑥口 |--⑤⑥|
44
①口口口 |①---|
②口口口 |②---|
③口④口 |③--④|
口⑥⑤口 |--⑤⑥|
45
口口口① |①---|
口口口② |②---|
口④口③ |③--④|
口⑤⑥口 |--⑤⑥|
46
①②④③ |①-②-|
⑤⑥⑧⑦ |③-④-|
口口口口 |⑤-⑥-|
口口口口 |⑦-⑧-|
47
口口口口 |①-②-|
口口口口 |③-④-|
①②④③ |⑤-⑥-|
⑤⑥⑧⑦ |⑦-⑧-|
48
⑧口①口 |①-②-|
口②口⑦ |③-④-|
⑥口③口 |⑤-⑥-|
口④口⑤ |⑦-⑧-|
49
口①①口 |①-②-|
口②②口 |③-④-|
口③③口
口④④口

⑤⑦⑦⑤
⑥⑦⑦⑥
口口口口 |⑤-⑥-|
口口口口 |⑦---|
50
口口口④ |①---|
③口口⑤ |②---|
①口③② |③---|
口②①口 |④-⑤-|
51
④口口口 |①---|
⑤口口③ |②---|
②③口① |③---|
口①②口 |④-⑤-|
52
口口口④ |①---|
③口口⑤ |②---|
①口③② |③---|
口②①口 |④-⑤-|
53
④口口口 |①---|
⑤口口③ |②---|
②③口① |③---|
口①②口 |④-⑤-|
54
口口①① |①---|
口②②口 |②---|
③③口⑤ |③---|
口口口④ |④-⑤-|
55
①①口口 |①---|
口②②口 |②---|
⑤口③③ |③---|
④口口口 |④-⑤-|
56
口口①① |①---|
口②②口 |②---|
③③口⑤ |③---|
口口口④ |④-⑤-|
57
①①口口 |①---|
口②②口 |②---|
⑤口③③ |③---|
④口口口 |④-⑤-|
58
口口①口 |①---|
②口③① |②---|
⑤②口③ |③---|
④口口口 |④-⑤-|
59
口①口口 |①---|
①③口② |②---|
③口②⑤ |③---|
口口口④ |④-⑤-|
60
口口①口 |①---|
②口③① |②---|
⑤②口③ |③---|
④口口口 |④-⑤-|
61
口①口口 |①---|
①③口② |②---|
③口②⑤ |③---|
口口口④ |④-⑤-|
62
②口②④ |①---|
口口口⑤ |②---|
口口口口 |③---|
①③①③ |④-⑤-|
63
①③①③ |①---|
口口口口 |②---|
口口口⑤ |③---|
②口②④ |④-⑤-|
64
②口②④ |①---|
口口口⑤ |②---|
口口口口 |③---|
①③①③ |④-⑤-|
65
①口①口 |①---|
口③③口 |②---|
口④④口 |③---|
②口②口 |④---|
66
①口口① |①---|
口口口口 |----|
口口口口 |----|
口口口口 |----|
67
口口口口 |----|
口口口口 |----|
口口口口 |----|
口口口口 |----|
68
口口口口 |①---|
①口口① |----|
口口口口 |----|
口口口口 |----|
69
口口口口 |----|
口口口口 |----|
口口口口 |----|
口口口口 |----|
70
口口口口 |①---|
口口口口 |----|
口①①口 |----|
口口口口 |----|

不確定度: 0

最終更新:2015年05月07日 02:29