Reflection
加藤浩義

EXTREME

Level: 9
BPM: 135
Notes: 830

1
口口口口 |----|
口口口口 |----|
口口口口 |----|
口口口口 |----|
2
口口口② |①---|
①①①① |②-③-|
③口口口
口口口口

口口口口
口口口⑤
口口口④ |----|
口口口口 |--④⑤|
3
口口口口 |----|
口口口口 |----|
口口口口 |----|
①口口口 |--①-|
4
口口①口 |①--②|
口②口口 |--③-|
口口③口 |----|
口口口口 |----|
5
口口口口 |①--②|
口③②① |--③-|
口口口口 |----|
口口口口 |----|
6
口①①口 |①---|
口口口口 |----|
口口口口 |----|
口口口口 |----|
7
口口③② |①---|
口口口口 |----|
口①①口 |--②-|
口口口口 |--③-|
8
③口口口 |①--②|
③口②口 |--③-|
口①口口 |----|
口口口口 |----|
9
口①②口 |----|
口口口口 |----|
③口口④ |---①|
口⑤口口 |②③④⑤|
10
⑥⑩⑨⑤ |①②③④|
⑯②①⑮ |⑤⑥⑦⑧|
⑫⑧⑦⑪ |⑨⑩⑪⑫|
④⑭⑬③ |⑬⑭⑮⑯|
11
④口口③ |①②③④|
口⑥⑤口 |⑤⑥⑦⑧|
口②①口
⑧口口⑦

口⑩⑨口
口⑯⑮口
⑫口口⑪ |⑨⑩⑪⑫|
口⑭⑬口 |⑬⑭⑮⑯|
12
⑭⑥⑤⑬ |①②③④|
④⑫⑪③ |⑤⑥⑦⑧|
⑧⑯⑮⑦ |⑨⑩⑪⑫|
②⑩⑨① |⑬⑭⑮⑯|
13
口②①口 |①②③④|
口⑧⑦口 |⑤⑥⑦⑧|
⑥口口⑤
④口口③

⑫⑯⑮⑪
口口口口
口⑭⑬口 |⑨⑩⑪⑫|
口⑩⑨口 |⑬⑭⑮⑯|
14
口口口口 |①②③④|
②⑥⑤① |⑤⑥⑦⑧|
口口口口
④⑧⑦③

口⑫⑪口
⑭口口⑬
⑩⑯⑮⑨ |⑨⑩⑪⑫|
口口口口 |⑬⑭⑮⑯|
15
②口口① |①②③④|
口⑥⑤口 |⑤⑥⑦⑧|
口口口口
④⑧⑦③

⑯⑫⑪⑮
⑭口口⑬
⑩口口⑨ |⑨⑩⑪⑫|
口口口口 |⑬⑭⑮⑯|
16
口口口口 |①②③④|
口⑥⑤口 |⑤⑥⑦⑧|
⑧②①⑦
④口口③

⑭口口⑬
⑩口口⑨
口⑯⑮口 |⑨⑩⑪⑫|
口⑫⑪口 |⑬⑭⑮⑯|
17
口④③口 |①②③④|
⑥口口⑤ |⑤⑥⑦⑧|
口口口口
②⑧⑦①

⑫口口⑪
口⑩⑨口
⑭口口⑬ |⑨⑩⑪⑫|
⑯口口⑮ |⑬⑭⑮⑯|
18
口口①② |①---|
口口③④ |②---|
口口①口 |③---|
口⑤⑥口 |④-⑤⑥|
19
②①口口 |①---|
④③口口 |②---|
口口口口 |③---|
口口口口 |④---|
20
口口④口 |①--②|
口口口口 |③-④-|
口口⑤⑥ |⑤---|
②①①③ |⑥---|
21
口口口口 |①---|
口口口口 |②---|
④③口口 |③---|
②①口口 |④---|
22
口①①③ |①--②|
口②⑤⑥ |③-④-|
口④口口 |⑤---|
口口口口 |⑥---|
23
②①口口 |①---|
④③口口 |②---|
口口口口 |③---|
口口口口 |④---|
24
口⑤口口 |①--②|
口④口口 |③-④-|
口②⑤⑥ |⑤---|
口①①③ |⑥---|
25
口口口口 |①---|
口口口口 |②---|
口口口口
②①口口

口口口口
口口口口
④③口口 |③---|
口⑦⑥⑤ |④⑤⑥⑦|
26
⑥②⑥② |①--②|
⑦①①③ |-③④⑤|
④口口⑧ |---⑥|
⑨口口⑤ |-⑦⑧⑨|
27
⑤①⑤① |---①|
⑥口口② |-②③④|
③口口⑦ |---⑤|
⑧口口④ |-⑥⑦⑧|
28
⑤①⑤① |---①|
⑥口口② |-②③④|
③口口⑦ |---⑤|
⑧口口④ |-⑥⑦⑧|
29
⑤①⑤① |---①|
⑥口口② |-②③④|
③口口⑦ |---⑤|
⑧口口④ |-⑥⑦⑧|
30
⑤①⑤① |---①|
⑥⑥②② |-②③④|
③③⑦⑦ |---⑤|
⑧⑧④④ |-⑥⑦⑧|
31
⑤①⑤① |---①|
⑥⑥②② |-②③④|
③③⑦⑦ |---⑤|
⑧⑧④④ |-⑥⑦⑧|
32
⑤①⑤① |---①|
⑥⑧④② |-②③④|
③③⑦⑦ |---⑤|
⑥⑧④② |-⑥⑦⑧|
33
口①口① |---①|
口口④② |-②③④|
③③口口
口口④②

口口⑧⑩
⑤⑨口口
口口口⑥ |⑤⑥⑦⑧|
⑪⑦口⑫ |⑨⑩⑪⑫|
34
①⑪⑫⑥ |①-②-|
②⑤⑩⑦ |③④⑤⑥|
口⑨④口 |-⑦-⑧|
口③⑧口 |⑨⑩⑪⑫|
35
①⑪⑫⑥ |①-②-|
②⑤⑩⑦ |③④⑤⑥|
口⑨④口 |-⑦-⑧|
口③⑧口 |⑨⑩⑪⑫|
36
①⑪⑫⑥ |①-②-|
①⑤⑩⑥ |③④⑤⑥|
⑦⑨④② |-⑦-⑧|
⑦③⑧② |⑨⑩⑪⑫|
37
①⑪⑫⑥ |①-②-|
①⑤⑩⑥ |③④⑤⑥|
⑦⑨④② |-⑦-⑧|
⑦③⑧② |⑨⑩⑪⑫|
38
①⑨⑧② |①-②-|
口⑪⑩口 |③④⑤⑥|
口⑤⑫口 |-⑦-⑧|
⑦③④⑥ |⑨⑩⑪⑫|
39
①⑨⑧② |①-②-|
口⑪⑩口 |③④⑤⑥|
口⑤⑫口 |-⑦-⑧|
⑦③④⑥ |⑨⑩⑪⑫|
40
②⑨⑧② |①-②-|
①⑪⑩① |③④⑤⑥|
⑦⑤⑫⑦ |-⑦-⑧|
⑥③④⑥ |⑨⑩⑪⑫|
41
②口口② |①-②-|
①口口① |③④⑤⑥|
口⑤口口
⑥③④⑥

口⑪⑩⑨
口⑭⑬⑫
⑦口⑧⑦ |-⑦-⑧|
口口口口 |⑨⑩⑪⑫⑬⑭|
42
⑤⑥⑥⑤ |①---|
口④④口 |②---|
口③③口 |③--④|
②①①② |--⑤⑥|
43
⑤⑥⑥⑤ |①---|
口④④口 |②---|
口③③口 |③--④|
②①①② |--⑤⑥|
44
⑤⑥⑥⑤ |①---|
口④④口 |②---|
口③③口 |③--④|
②①①② |--⑤⑥|
45
⑤⑥⑥⑤ |①---|
口④④口 |②---|
口③③口 |③--④|
②①①② |--⑤⑥|
46
口口口口 |①-②-|
口口口② |③-④-|
①③口②
③①④④

⑤⑨⑧⑥
⑤⑦口口
⑦口⑥口 |⑤-⑥-|
口口口口 |⑦-⑧⑨|
47
口口口口 |①-②-|
②④③③ |③-④-|
④口口①
②口①口

⑥口⑦⑦
口口口口
口⑥⑤口 |⑤-⑥-|
口⑧⑨⑤ |⑦-⑧⑨|
48
口①④口 |①-②-|
①口口口 |③-④-|
③③④②
口口口②

口⑦口⑥
⑦⑤⑥口
口口口口 |⑤-⑥-|
⑤⑨⑧口 |⑦-⑧⑨|
49
⑧口①⑦ |①②③④|
口④口⑤ |⑤⑥⑦⑧|
②口口口
⑥口口③

口⑩口口
口口⑪口
⑬⑫⑨⑬ |⑨⑩⑪⑫|
口⑬⑬口 |⑬---|
50
②⑥①⑦ |①-②-|
⑥②⑦① |③④⑤⑥|
⑪④⑨⑫ |-⑦-⑧|
③⑩⑤⑧ |⑨⑩⑪⑫|
51
①⑥②口 |①-②-|
⑥①口② |③④⑤⑥|
口④口口
③口⑤口

口口口⑦
口口⑦口
⑧口⑩口 |-⑦-⑧|
⑫⑨口⑪ |⑨⑩⑪⑫|
52
②口①⑥ |①-②-|
口②⑥① |③④⑤⑥|
口⑤口③
口口④口

口⑦口口
⑦口口口
⑪口⑨⑫ |-⑦-⑧|
口⑩口⑧ |⑨⑩⑪⑫|
53
①⑥②口 |①-②-|
⑥①口② |③④⑤⑥|
口④口口
③口⑤口

口口口⑦
口口⑦口
⑧口⑩口 |-⑦-⑧|
⑫⑨口⑪ |⑨⑩⑪⑫|
54
①⑦②⑥ |①-②-|
⑦①⑥② |③④⑤⑥|
⑧⑤⑩③ |-⑦-⑧|
⑫⑨④⑪ |⑨⑩⑪⑫|
55
②口①⑥ |①-②-|
口②⑥① |③④⑤⑥|
口⑤口③
口口④口

口⑦口口
⑦口口口
⑪口⑨⑫ |-⑦-⑧|
口⑩口⑧ |⑨⑩⑪⑫|
56
①⑥②⑦ |①-②-|
⑥①⑦② |③④⑤⑥|
⑪④⑨⑫ |-⑦-⑧|
③⑩⑤⑧ |⑨⑩⑪⑫|
57
②口①⑥ |①-②-|
口②⑥① |③④⑤⑥|
口④口口
③口⑤口

口⑦口口
⑦口口口
⑧口⑩口 |-⑦-⑧|
⑫⑨口⑪ |⑨⑩⑪⑫|
58
②口①⑥ |①-②-|
口②⑥① |③④⑤⑥|
口⑤口③
口口④口

口⑦口口
⑦口口口
⑪口⑨⑫ |-⑦-⑧|
口⑩口⑧ |⑨⑩⑪⑫|
59
①⑥②口 |①-②-|
⑥①口② |③④⑤⑥|
口④口口
③口⑤口

口口口⑦
口口⑦口
⑧口⑩口 |-⑦-⑧|
⑫⑨口⑪ |⑨⑩⑪⑫|
60
①⑦②⑥ |①-②-|
⑦①⑥② |③④⑤⑥|
⑧⑤⑩③ |-⑦-⑧|
⑫⑨④⑪ |⑨⑩⑪⑫|
61
②⑦①⑥ |①-②-|
⑦②⑥① |③④⑤⑥|
⑧⑤⑩③ |-⑦-⑧|
⑫⑨④⑪ |⑨⑩⑪⑫|
62
口④①⑦ |①②③④|
⑥口口① |⑤⑥⑦⑧|
口②口⑤
口⑧③口

⑩口⑬口
口⑭口⑪
⑫口⑨口 |⑨⑩⑪⑫|
⑯口口⑮ |⑬⑭⑮⑯|
63
⑥口口① |①②③④|
②口①⑤ |⑤⑥⑦⑧|
口④口⑦
口⑧③口

口⑯⑨⑬
⑭⑫口口
⑩口⑮口 |⑨⑩⑪⑫|
口口口⑪ |⑬⑭⑮⑯|
64
④口⑦口 |①②③④|
口口①⑤ |⑤⑥⑦⑧|
⑧⑥口①
②口③口

⑯口口⑪
⑭⑩口口
口口口⑬ |⑨⑩⑪⑫|
口⑫⑮⑨ |⑬⑭⑮⑯|
65
口④口⑦ |①②③④|
口⑧③① |⑤⑥⑦⑧|
⑥口①口
②口口⑤

口⑫⑫口
⑪口⑪口
口⑩口⑩ |⑨-⑩-|
口⑨⑨口 |⑪-⑫-|
66
口口口口 |①-②-|
口口口口 |③-④-|
口口口口
④③②①

⑤口口口
口⑥口口
口口⑦口 |⑤-⑥-|
口口口⑧ |⑦-⑧-|
67
④③②① |①-②-|
口口口口 |③-④-|
口口口口
口口口口

口口口⑧
口口⑦口
口⑥口口 |⑤-⑥-|
⑤口口口 |⑦-⑧-|
68
口口口口 |①-②-|
口口口口 |③-④-|
口口口口
④③②①

⑤口口口
口⑥口口
口口⑦口 |⑤-⑥-|
口口口⑧ |⑦-⑧-|
69
④③②① |①-②-|
口口口口 |③-④-|
口口口口
口口口口

口口口⑧
口口⑦口
口⑥口口 |⑤-⑥-|
⑤口口口 |⑦-⑧-|

不確定度: 0

最終更新:2015年05月07日 02:29