Stay with Me
加藤浩義

BASIC

Level: 3
BPM: 137
Notes: 259

1
口口口口 |----|
口口口口 |----|
口口口口 |----|
口口口口 |----|
2
②口口口 |①---|
口①①口 |②---|
口口口口
口口口口

口口口③
口④④口
口口口口 |③---|
口口口口 |--④-|
3
口口口口 |--①-|
口口口口 |----|
口①①口 |----|
口口口口 |----|
4
口口口口 |----|
口口口口 |----|
口口口口 |----|
口口口口 |----|
5
口口口口 |----|
口口口口 |----|
口口口口 |----|
口口口口 |----|
6
口口口口 |----|
①口口② |①---|
口③③口 |②---|
口口口口 |--③-|
7
口口口口 |--①-|
口口口口 |----|
口口口口 |----|
口①①口 |----|
8
口口口口 |----|
口口口口 |----|
口口口口 |----|
口口口口 |----|
9
口口口口 |----|
口口口口 |----|
口口口口 |----|
口口口口 |----|
10
口②④口 |①---|
口口口口 |②---|
①口③① |③---|
口口口口 |④---|
11
口②④口 |①---|
口口口口 |②---|
口①③口 |③---|
口口口口 |④---|
12
口口口口 |①---|
口②④口 |②---|
口口口口 |③---|
口①③口 |④---|
13
口口口口 |①---|
口②④口 |②---|
口口口口 |③---|
口①③口 |④---|
14
口②④口 |①---|
口口口口 |②---|
①口③① |③---|
口口口口 |④---|
15
口②④口 |①---|
口口口口 |②---|
口①③口 |③---|
口口口口 |④---|
16
口口口口 |①---|
口②④口 |②---|
口口口口 |③---|
口①③口 |④---|
17
口口口口 |①---|
口口③口 |----|
口②口口 |②---|
①口口① |③---|
18
口口口① |①---|
口口口① |----|
口口口口 |----|
口口口口 |----|
19
口口口口 |①---|
口口口口 |②---|
口口口口 |③---|
①②③④ |④---|
20
口口④③ |①---|
口口口② |②---|
口口口① |③---|
口口口口 |④---|
21
②①口口 |①---|
③口口口 |②---|
④口口口 |③---|
口口口口 |④---|
22
口口口口 |①---|
口口口口 |②---|
口④③口 |③---|
口②①口 |④---|
23
口④③口 |①---|
口②①口 |②---|
口口口口 |③---|
口口口口 |④---|
24
②口口① |①---|
④口口③ |②---|
口口口口 |③---|
口口口口 |④---|
25
口口口口 |①---|
口口口口 |②---|
②口口① |③---|
口④④③ |④---|
26
②口口③ |①---|
口④④口 |②---|
口①①口 |③---|
口口口口 |--④-|
27
口口口口 |--①-|
口口口口 |----|
口①①口 |----|
口口口口 |----|
28
口口口口 |①---|
口口口口 |②---|
口口口④ |③---|
口①②③ |④---|
29
口④③② |①---|
口口口① |②---|
口口口口 |③---|
口口口口 |④---|
30
①口口口 |①---|
②口口③ |②---|
口④④口 |③---|
口口口口 |--④-|
31
口口口口 |--①-|
口口口口 |----|
口口口口 |----|
口①①口 |----|
32
口④③② |①---|
口口口① |②---|
口口口口 |③---|
口口口口 |④---|
33
①口口口 |①---|
②口口口 |②---|
③口口口 |③---|
④口口口 |④---|
34
口口口口 |①---|
口口口口 |----|
口①①口 |----|
口口口口 |----|
35
口口口口 |①---|
口①②口 |----|
口口口口 |②---|
口口口口 |----|
36
口口口口 |①---|
口口口口 |----|
①口口① |----|
口口口口 |----|
37
口口口口 |①---|
口①②口 |----|
口口口口 |②---|
口口口口 |----|
38
口口口口 |①---|
①口口① |----|
口口口口 |----|
口口口口 |----|
39
口口口口 |①---|
口①②口 |----|
口口口口 |②---|
口口口口 |----|
40
①口口① |①---|
口口口口 |----|
口口口口 |----|
口口口口 |----|
41
口口口口 |①---|
口①②口 |----|
口口口口 |②---|
口口口口 |----|
42
口口口口 |①---|
口②③④ |②---|
①①①① |③---|
口口口口 |④---|
43
口口口口 |①---|
口口口口 |②---|
①②③④ |③---|
口口口口 |④---|
44
①②③④ |①---|
口口口口 |②---|
口口口口 |③---|
口口口口 |④---|
45
口口口口 |①---|
口口口口 |②---|
口口口口 |③---|
①②③④ |④---|
46
口口口口 |①---|
口口口口 |②---|
①②③④ |③---|
口口口口 |④---|
47
口口口口 |①---|
①②③④ |②---|
口口口口 |③---|
口口口口 |④---|
48
口口④口 |①---|
口③口口 |②---|
口口②口 |③---|
口①口口 |④---|
49
①口口① |①---|
②口口② |②---|
③④④③ |③---|
口④④口 |④---|
50
口口④口 |①---|
①②口口 |②---|
口口③口 |③---|
口口口口 |④---|
51
①口口口 |①---|
②口口口 |②---|
③口口口 |③---|
④口口口 |④---|
52
口④口口 |①---|
口口②口 |②---|
口③口口 |③---|
口①①口 |④---|
53
口口口① |①---|
口口口② |②---|
口口口③ |③---|
口口口④ |④---|
54
口口④口 |①---|
口②口口 |②---|
口口③口 |③---|
口①①口 |④---|
55
①口口口 |①---|
②口口口 |②---|
③口口口 |③---|
④口口口 |④---|
56
口④口口 |①---|
口口②口 |②---|
口③口口 |③---|
口①①口 |④---|
57
口口①口 |①---|
口口②口 |②---|
口口③口 |③---|
④口口④ |④---|
58
口口口口 |①---|
①③⑤① |--②-|
口②④口 |③-④-|
口口口口 |⑤---|
59
口口口口 |①---|
口口口口 |②---|
口口口口 |③---|
①②③④ |④---|
60
①口口① |①---|
口②②口 |--②-|
口③③口 |③---|
口口口口 |----|
61
口口口口 |①---|
①口口① |--②-|
口②②口 |③---|
④③③④ |④---|
62
口口口口 |①---|
①③⑤① |--②-|
口②④口 |③-④-|
口口口口 |⑤---|
63
口口口口 |①---|
口口口口 |②---|
口口口口 |③---|
①②③④ |④---|
64
①口口① |①---|
口②②口 |--②-|
口③③口 |③---|
口口口口 |----|
65
①②②① |①---|
口③③口 |--②-|
口口口口 |③---|
口口口口 |----|
66
④口口④ |①---|
口口③口 |②---|
①①①① |③---|
口②口口 |--④-|
67
口口口口 |--①-|
①口口① |----|
口口口口 |----|
口口口口 |----|

不確定度: 0

最終更新:2015年05月07日 02:29