Stay with Me
加藤浩義

ADVANCED

Level: 6
BPM: 137
Notes: 459

1
口口口口 |----|
口口口口 |----|
口口口口 |----|
口口口口 |----|
2
口口②口 |①---|
①③①口 |②-③-|
口①口①
口口口口

⑤口口⑤
⑥口口⑥
口口④口 |④-⑤-|
口口口口 |--⑥-|
3
口口口口 |--①-|
口口口口 |----|
①口口① |----|
口口口口 |----|
4
口口口口 |①---|
口①口口 |----|
口口口口 |----|
口口口口 |----|
5
口口口口 |①---|
口口口口 |----|
口①①口 |----|
口口口口 |----|
6
口②口口 |①---|
口①③① |②-③-|
①口①口
口口口口

⑤口口⑤
⑥口口⑥
口④口口 |④-⑤-|
口口口口 |--⑥-|
7
口口口口 |--①-|
口口口口 |----|
①口口① |----|
口口口口 |----|
8
口口口口 |①---|
口口①口 |----|
口口口口 |----|
口口口口 |----|
9
口口口口 |①---|
口④口口 |②---|
口口④口 |③---|
①②③口 |④---|
10
口口②口 |①---|
口③①① |②-③-|
①①口口
口口口口

⑤口口⑤
⑥口口⑥
口口④口 |④-⑤-|
口口口口 |--⑥-|
11
口口口口 |--①-|
口口口口 |----|
①口口① |----|
口口口口 |----|
12
口口口口 |①---|
口口口口 |②---|
口口口口 |③---|
①②③④ |④---|
13
口②③④ |①---|
口口口口 |②---|
口①①口 |③---|
口口口口 |④---|
14
口②口口 |①---|
①①③口 |②-③-|
口口①①
口口口口

⑤口口⑤
⑥口口⑥
口④口口 |④-⑤-|
口口口口 |--⑥-|
15
口口口口 |--①-|
口口口口 |----|
①口口① |----|
口口口口 |----|
16
口口口口 |①---|
口口口口 |②---|
口口口口 |③---|
①②③④ |④---|
17
口口口口 |①---|
口口口口 |②---|
④①②⑥ |③-④-|
口③⑤口 |⑤-⑥-|
18
口口口口 |①---|
口口口口 |----|
口①①口 |----|
口口口口 |----|
19
口口口口 |----|
口口口口 |----|
口口口口 |----|
口口口口 |----|
20
口口口① |----|
口口口② |①---|
口口口③ |②---|
口口口口 |③---|
21
口口⑦口 |①-②-|
口口口⑧ |③-④-|
⑤⑥③④ |⑤-⑥-|
①②口口 |⑦-⑧-|
22
①口口口 |①---|
②口口口 |②---|
③口口口 |③---|
④口口口 |④---|
23
口口口① |①---|
口口口② |②---|
口口口③ |③---|
口口口④ |④---|
24
口口口口 |①-②-|
口口⑦⑧ |③-④-|
⑤⑥口口 |⑤-⑥-|
①②③④ |⑦-⑧-|
25
⑬口⑬口 |①②③④|
⑨⑩⑪⑫ |⑤⑥⑦⑧|
⑤⑥⑦⑧ |⑨⑩⑪⑫|
①②③④ |⑬---|
26
口口口口 |①---|
口口口口 |②-③-|
①①③口
口②①①

口口口口
⑤④口⑤
⑥口口⑥ |④-⑤-|
口口口口 |--⑥-|
27
口②③④ |--①-|
口口口口 |②---|
口口口口 |③---|
①口口① |④---|
28
口口口口 |①---|
①②③④ |②---|
口口口口 |③---|
口口口口 |④---|
29
口口口口 |①---|
口口口口 |②---|
口①①口 |③---|
口②③④ |④---|
30
口口口口 |①---|
口口口口 |②-③-|
口③①①
①①②口

口口口口
⑤口④⑤
⑥口口⑥ |④-⑤-|
口口口口 |--⑥-|
31
口②③④ |--①-|
口口口口 |②---|
口口口口 |③---|
①口口① |④---|
32
口口口口 |①---|
①②③④ |②---|
口口口口 |③---|
口口口口 |④---|
33
①②③④ |①-②-|
口口口口 |③-④-|
⑨⑩⑪⑫ |⑤⑥⑦⑧|
⑤⑥⑦⑧ |⑨⑩⑪⑫|
34
②口口口 |①-②-|
④①①③ |③-④-|
口⑥⑤口 |⑤-⑥-|
⑧口口⑦ |⑦-⑧-|
35
口口口⑤ |①-②-|
⑥口口口 |③-④-|
口④③⑦ |⑤-⑥-|
⑧②①口 |⑦-⑧-|
36
①口口② |①-②-|
③口口④ |③-④-|
⑤口口⑥ |⑤-⑥-|
⑦口口⑧ |⑦-⑧-|
37
⑤口口口 |①-②-|
口口口⑥ |③-④-|
⑦③④口 |⑤-⑥-|
口①②⑧ |⑦-⑧-|
38
②口口① |①-②-|
④口口③ |③-④-|
⑥口口⑤ |⑤-⑥-|
⑧口口⑦ |⑦-⑧-|
39
口口口⑤ |①-②-|
⑥口口口 |③-④-|
口④③⑦ |⑤-⑥-|
⑧②①口 |⑦-⑧-|
40
①口口② |①-②-|
③口口④ |③-④-|
⑤口口⑥ |⑤-⑥-|
⑦口口⑧ |⑦-⑧-|
41
⑤口口口 |①-②-|
口口口⑥ |③-④-|
⑦③④口 |⑤-⑥-|
口①②⑧ |⑦-⑧-|
42
口口口口 |①---|
②①①口 |②---|
③口口口 |③---|
④口口口 |④---|
43
口口①口 |①---|
口口②口 |②---|
口口③口 |③---|
口口④口 |④---|
44
口①口口 |①---|
口②口口 |②---|
口③口口 |③---|
口④口口 |④---|
45
口口口① |①---|
口口口② |②---|
口口口③ |③---|
口口口④ |④---|
46
①口②口 |①-②-|
③口④口 |③-④-|
⑤口⑥口 |⑤-⑥-|
⑦口⑧口 |⑦-⑧-|
47
口①口② |①-②-|
口③口④ |③-④-|
口⑤口⑥ |⑤-⑥-|
口⑦口⑧ |⑦-⑧-|
48
①⑨⑤⑬ |①②③④|
②⑩⑥⑭ |⑤⑥⑦⑧|
③⑪⑦⑮ |⑨⑩⑪⑫|
④⑫⑧⑯ |⑬⑭⑮⑯|
49
①⑤②⑥ |①-②-|
③⑦④⑧ |③-④-|
①⑤②⑥ |⑤-⑥-|
③⑦④⑧ |⑦-⑧-|
50
①口②⑥ |①-②-|
口⑤②⑥ |③-④-|
③口④⑧ |⑤-⑥-|
口⑦④⑧ |⑦-⑧-|
51
口②③口 |①-②-|
①口口④ |③-④-|
⑧口口⑤ |⑤-⑥-|
口⑦⑥口 |⑦-⑧-|
52
④④⑧⑧ |①-②-|
②②⑥⑥ |③-④-|
口③⑦口 |⑤-⑥-|
①口口⑤ |⑦-⑧-|
53
口⑥⑦口 |①-②-|
⑤口口⑧ |③-④-|
④口口① |⑤-⑥-|
口③②口 |⑦-⑧-|
54
④⑧口⑦ |①-②-|
④⑧③口 |③-④-|
②⑥口⑤ |⑤-⑥-|
②⑥①口 |⑦-⑧-|
55
口⑧④口 |①-②-|
⑦口口③ |③-④-|
⑥口口② |⑤-⑥-|
口⑤①口 |⑦-⑧-|
56
⑧⑧④④ |①-②-|
⑥⑥②② |③-④-|
口⑦③口 |⑤-⑥-|
⑤口口① |⑦-⑧-|
57
⑤口口① |①-②-|
口⑥②口 |③-④-|
口⑦⑦③ |⑤-⑥-|
口口④口 |⑦---|
58
口口④口 |①--②|
③口⑤口 |--③-|
口口⑥② |④-⑤-|
口①①口 |⑥---|
59
口口口口 |①-②-|
口⑥⑤④ |③---|
口口口口 |④-⑤-|
①②③口 |⑥---|
60
口②②口 |①--②|
口③③口 |--③-|
④①①④ |④---|
口口口口 |----|
61
口口口口 |①--②|
⑤②②⑤ |--③-|
口③③口 |④---|
④①①④ |⑤---|
62
口④口口 |①--②|
口⑤口③ |--③-|
②⑥口口 |④-⑤-|
口①①口 |⑥---|
63
口口口口 |①-②-|
④⑤⑥口 |③---|
口口口口 |④-⑤-|
口③②① |⑥---|
64
口②②口 |①--②|
口③③口 |--③-|
④①①④ |④---|
口口口口 |----|
65
口①①口 |①--②|
口②②口 |--③-|
③口口③ |④---|
④口口④ |----|
66
口②口口 |①---|
口①③① |②-③-|
①口①口
口口口口

⑤口口⑤
⑥口口⑥
口④口口 |④-⑤-|
口口口口 |--⑥-|
67
口口口口 |--①-|
口口口口 |----|
①口口① |----|
口口口口 |----|

不確定度: 0

最終更新:2015年05月07日 02:29