You and Me / Punk
加藤浩義

BASIC

Level: 2
BPM: 132-135
Notes: 200

BPM: 132
1
口口口口 |----|
口口口口 |----|
口口口口 |----|
口口口口 |----|
2
口口口口 |①---|
口口口口 |----|
口①①口 |----|
口口口口 |----|
3
口口口口 |----|
口口口口 |----|
口口口口 |----|
口口口口 |----|
4
口口口口 |①---|
口口口口 |----|
①口口① |----|
口口口口 |----|
5
口口口口 |----|
口口口口 |----|
口口口口 |----|
口口口口 |----|
6
口口口口 |----|
口口口口 |①---|
①②口口 |----|
口口口口 |②---|
7
口口口口 |----|
口口口口 |①---|
口口①② |----|
口口口口 |②---|
8
口口口口 |----|
口口口口 |①---|
口②①口 |----|
口口口口 |②---|
9
口口口口 |①---|
①口口① |----|
口口口口 |----|
口口口口 |----|
10
口口口口 |----|
口②口口 |①---|
口①口口 |----|
口口口口 |②---|
11
口口口口 |----|
口口②口 |①---|
口口①口 |----|
口口口口 |②---|
12
口口口口 |----|
口②口口 |①---|
口①口口 |----|
口口口口 |②---|
13
口口口口 |----|
口口②口 |①---|
口口①口 |----|
口口口口 |②---|
14
口口口口 |----|
口②②口 |①---|
口①①口 |----|
口口口口 |②---|
15
口口口口 |----|
②口口② |①---|
①口口① |----|
口口口口 |②---|
16
口口口口 |----|
口②②口 |①---|
口①①口 |----|
口口口口 |②---|
17
①口口① |①---|
口口口口 |----|
口口口口 |----|
口口口口 |----|
18
口口口口 |----|
口口口① |①---|
口口②口 |----|
口口口口 |②---|
19
口口口口 |----|
②口口口 |①---|
口①口口 |----|
口口口口 |②---|
20
口口口口 |----|
口②口口 |①---|
①口口口 |----|
口口口口 |②---|
21
口口口口 |----|
口口①口 |①---|
口口口② |----|
口口口口 |②---|
22
口口口口 |----|
口口口① |①---|
口口②口 |----|
口口口口 |②---|
23
口口口口 |----|
②口口口 |①---|
口①口口 |----|
口口口口 |②---|
24
口口口口 |----|
口②口口 |①---|
①口口口 |----|
口口口口 |②---|
25
口口口口 |----|
口口①口 |①---|
口口口② |----|
口口口口 |②---|
26
口口口口 |①---|
口口口口 |②---|
口口口口 |③---|
①②③④ |④---|
27
口口口口 |①---|
口口口口 |②---|
④③②① |③---|
口口口口 |④---|
28
口口口口 |①---|
①②③④ |②---|
口口口口 |③---|
口口口口 |④---|
29
④③②① |①---|
口口口口 |②---|
口口口口 |③---|
口口口口 |④---|
30
口口口口 |①---|
①②③④ |②---|
口口口口 |③---|
口口口口 |④---|
31
口口口口 |①---|
口口口口 |②---|
④③②① |③---|
口口口口 |④---|
32
口口口口 |①---|
口口口口 |②---|
口口口口 |③---|
①②③④ |④---|
33
口口口口 |①---|
口口口口 |②---|
④③②① |③---|
口口口口 |④---|

BPM: 69.13
34
口①①口 |①---|
口①①口
口口口口
口口口口

BPM: 81.2
口口口口
口口口口 |----|
口口口口
口口口口

BPM: 51.5
口口口口
口口口口
口口口口 |----|
口口口口 |----|

BPM: 135
35
口口口口 |①---|
口口口口 |②---|
口③④口 |③---|
口①②口 |④---|
36
口③④口 |①---|
口①②口 |②---|
口口口口 |③---|
口口口口 |④---|
37
①口口② |①---|
③口口④ |②---|
口口口口 |③---|
口口口口 |④---|
38
口口口口 |①---|
口口口口 |②---|
①口口② |③---|
③口口④ |④---|
39
口口口口 |①---|
口口口口 |②---|
口③④口 |③---|
口①②口 |④---|
40
口③④口 |①---|
口①②口 |②---|
口口口口 |③---|
口口口口 |④---|
41
①口口② |①---|
③口口④ |②---|
口口口口 |③---|
口口口口 |④---|
42
口口口口 |①---|
口口口口 |--②-|
口①①口 |----|
口②②口 |----|
43
口口口口 |①---|
口口口口 |②---|
②①③④ |③---|
口口口口 |④---|
44
口口口口 |①---|
②①③④ |②---|
口口口口 |③---|
口口口口 |④---|
45
口口口口 |①---|
口口口口 |②---|
②①③④ |③---|
口口口口 |④---|
46
口口口口 |①---|
②①③④ |②---|
口口口口 |③---|
口口口口 |④---|
47
口口口口 |①---|
②口口④ |②---|
口①③口 |③---|
口口口口 |④---|
48
②口口④ |①---|
口①③口 |②---|
口口口口 |③---|
口口口口 |④---|
49
口口口口 |①---|
②口口④ |②---|
口①③口 |③---|
口口口口 |④---|
50
口①①口 |①---|
口口口口 |----|
口口口口 |----|
口口口口 |----|
51
口口口口 |①---|
口①口口 |----|
口口①口 |----|
口口口口 |----|
52
口口口口 |①---|
口口①口 |----|
口①口口 |----|
口口口口 |----|
53
口口口口 |①---|
口①口口 |----|
口口①口 |----|
口口口口 |----|
54
口口口口 |①---|
口口①口 |----|
口①口口 |----|
口口口口 |----|
55
口口口口 |①---|
口口口口 |----|
口口口口 |----|
①①①① |----|
56
口口口口 |----|
口口口口 |----|
口口口口 |----|
口口口口 |----|
57
口口口口 |①---|
①口口① |----|
口口口口 |----|
口口口口 |----|
58
①口口① |①---|
口口口口 |----|
口口口口 |----|
口口口口 |----|
59
口口④口 |①---|
口③口口 |②---|
口口②口 |③---|
口①口口 |④---|
60
①口口口 |①---|
口口口② |②---|
③口口口 |③---|
口口口④ |④---|
61
口口口④ |①---|
③口口口 |②---|
口口口② |③---|
①口口口 |④---|
62
口①口口 |①---|
口口②口 |②---|
口③口口 |③---|
口口④口 |④---|
63
口口口④ |①---|
③口口口 |②---|
口口口② |③---|
①口口口 |④---|
64
口①口口 |①---|
口口②口 |②---|
口③口口 |③---|
口口④口 |④---|
65
口口④口 |①---|
口③口口 |②---|
口口②口 |③---|
口①口口 |④---|
66
口口口口 |①---|
①口口① |----|
①口口① |----|
口口口口 |----|
67
①①①① |①---|
口口口口 |----|
口口口口 |----|
口口口口 |----|

不確定度: 0

最終更新:2015年05月07日 02:22