You and Me / Punk
加藤浩義

ADVANCED

Level: 5
BPM: 132-135
Notes: 389

BPM: 132
1
口口口口 |----|
口口口口 |----|
口口口口 |----|
口口口口 |----|
2
③口口口 |①---|
口口口② |②---|
①口口口 |③---|
口口口口 |----|
3
口口口① |①---|
②口口口 |②---|
口口口③ |③---|
口口口口 |----|
4
③口口口 |①---|
口口口② |②---|
①口口口 |③---|
口口口口 |----|
5
口①①口 |①---|
口口口口 |----|
口口口口 |②---|
口②②口 |----|
6
口口口④ |①---|
③口口口 |②---|
口口口② |③---|
①口口口 |④---|
7
①口口口 |①---|
口口口② |②---|
③口口口 |③---|
口口口④ |④---|
8
口口口口 |①---|
口口口口 |②---|
口③④口 |③---|
口①②口 |④---|
9
①①①① |①---|
口口口口 |----|
口口口口 |----|
口口口口 |----|
10
口口口③ |①---|
口口②口 |②---|
口④口口 |③---|
①口口口 |④---|
11
口口口口 |①---|
口②①口 |②---|
口④③口 |③---|
口口口口 |④---|
12
③口口口 |①---|
口②口口 |②---|
口口④口 |③---|
口口口① |④---|
13
口口口口 |①---|
口①②口 |②---|
口③④口 |③---|
口口口口 |④---|
14
口口③口 |①---|
口口②③ |②---|
①④口口 |③---|
口①口口 |④---|
15
口口口口 |①---|
口②①口 |②---|
口④③口 |③---|
口口口口 |④---|
16
口③口口 |①---|
③②口口 |②---|
口口④① |③---|
口口①口 |④---|
17
口口口口 |①---|
口①②口 |②---|
口③④口 |③---|
口口口口 |④---|
18
②口口① |①---|
口口口口 |----|
口口口口 |②---|
①口口② |----|
19
口口口口 |①---|
口③③口 |②---|
口②②口 |③---|
口①①口 |----|
20
①口口② |①---|
口口口口 |----|
口口口口 |②---|
②口口① |----|
21
口口口口 |①---|
口①①口 |②---|
口②②口 |③---|
口③③口 |----|
22
口口口口 |①---|
③③②② |②---|
①①④④ |③---|
口口口口 |④---|
23
口口口口 |①---|
③③②② |②---|
①①④④ |③---|
口口口口 |④---|
24
口口口口 |①---|
③③②② |②---|
①①④④ |③---|
口口口口 |④---|
25
②口口② |①---|
口口口口 |----|
口口口口 |②---|
口①①口 |----|
26
口口口口 |①-②-|
⑦口口④ |③-④-|
①口口口 |--⑤-|
⑤③⑥② |⑥-⑦-|
27
口口口口 |--①-|
口口口③ |②-③-|
口口⑥⑤ |--④-|
④②口① |⑤-⑥-|
28
口口口口 |①-②-|
⑦口口④ |③-④-|
①口口口 |--⑤-|
⑤③⑥② |⑥-⑦-|
29
口⑥⑥口 |--①-|
口⑤⑤③ |②-③-|
口口口口 |--④-|
④②口① |⑤-⑥-|
30
⑦口口④ |①-②-|
口⑦④口 |③-④-|
①口口口 |--⑤-|
⑤③⑥② |⑥-⑦-|
31
口口口③ |--①-|
口口③口 |②-③-|
口口⑥⑤ |--④-|
④②口① |⑤-⑥-|
32
口⑦④口 |①-②-|
⑦口口④ |③-④-|
①口口口 |--⑤-|
⑤③⑥② |⑥-⑦-|
33
口口③口 |--①-|
口⑥⑥③ |②-③-|
口⑤⑤口 |--④-|
④②口① |⑤-⑥-|

BPM: 69.13
34
①①①① |①---|
口口口口
口口口口
口口口口

BPM: 81.2
口口口口
②口口② |②---|
口口口口
口口口口

BPM: 51.5
口口口口
口口口口
③口口③ |③---|
口口口口 |----|

BPM: 135
35
口④④口 |①---|
口③③口 |②---|
口②②口 |③---|
口①①口 |④---|
36
口④④口 |①---|
口③③口 |②---|
口②②口 |③---|
口①①口 |④---|
37
口④④口 |①---|
口③③口 |②---|
口②②口 |③---|
口①①口 |④---|
38
口④④口 |①---|
口③③口 |②---|
口②②口 |③---|
口①①口 |④---|
39
④口口④ |①---|
口③③口 |②---|
②口口② |③---|
口①①口 |④---|
40
④口口④ |①---|
口③③口 |②---|
②口口② |③---|
口①①口 |④---|
41
④口口④ |①---|
口③③口 |②---|
②口口② |③---|
口①①口 |④---|
42
口口口口 |①--②|
②口③① |--③-|
①③口② |----|
口口口口 |----|
43
口口口口 |①-②-|
口口口口 |③-④-|
⑦⑤⑥⑧ |⑤-⑥-|
③①②④ |⑦-⑧-|
44
⑦⑤⑥⑧ |①-②-|
③①②④ |③-④-|
口口口口 |⑤-⑥-|
口口口口 |⑦-⑧-|
45
口口口口 |①-②-|
口口口口 |③-④-|
⑦⑤⑥⑧ |⑤-⑥-|
③①②④ |⑦-⑧-|
46
⑧⑦⑥⑤ |①-②-|
③①②④ |③-④-|
口口口口 |⑤-⑥-|
口口口口 |⑦-⑧-|
47
口口口口 |①-②-|
口口口口 |③-④-|
⑧⑥⑤⑦ |⑤-⑥-|
④②①③ |⑦-⑧-|
48
⑧⑥⑤⑦ |①-②-|
④②①③ |③-④-|
口口口口 |⑤-⑥-|
口口口口 |⑦-⑧-|
49
口口口口 |①-②-|
口口口口 |③-④-|
⑧⑥⑤⑦ |⑤-⑥-|
④②①③ |⑦-⑧-|
50
⑤⑥⑦⑧ |①-②-|
④②①③ |③-④-|
口口口口 |⑤-⑥-|
口口口口 |⑦-⑧-|
51
口口口口 |①---|
口①①口 |----|
口①①口 |----|
口口口口 |----|
52
口口口口 |①---|
口口口口 |----|
口口口① |----|
口①口口 |----|
53
口口①口 |①---|
①口口口 |----|
口口口口 |----|
口口口口 |----|
54
口口口口 |①---|
口①口口 |----|
口口①口 |----|
口口口口 |----|
55
口口口口 |①---|
口①①口 |----|
口①①口 |----|
口口口口 |----|
56
口口口口 |①---|
口口口口 |----|
①口口口 |----|
口口①口 |----|
57
口①口口 |①---|
口口口① |----|
口口口口 |----|
口口口口 |----|
58
口口口口 |①---|
口口①口 |----|
口①口口 |----|
口口口口 |----|
59
③口口③ |①-②-|
④③③④ |----|
口④④口 |③---|
口①②口 |④---|
60
口口口口 |----|
口口口口 |--①-|
口口口口 |----|
①口口① |----|
61
口⑦⑧口 |①-②-|
口⑤⑥口 |③-④-|
口③④口 |⑤-⑥-|
口①②口 |⑦-⑧-|
62
口口口口 |①-②-|
⑧⑦⑥⑤ |③-④-|
口③④口 |⑤-⑥-|
口①②口 |⑦-⑧-|
63
口口口⑤ |----|
口口⑤口 |①-②-|
口④①口 |③-④-|
口②③口 |--⑤-|
64
①口口口 |--①-|
②①口② |--②-|
②口口② |----|
口口口口 |----|
65
口⑧⑦口 |①-②-|
口⑥⑤口 |③-④-|
口④③口 |⑤-⑥-|
口②①口 |⑦-⑧-|
66
口口口口 |①-②-|
⑤⑥⑦⑧ |③-④-|
口④③口 |⑤-⑥-|
口②①口 |⑦-⑧-|
67
口口口口 |①---|
口口口口 |----|
口口口口 |----|
①①①① |----|

不確定度: 0

最終更新:2015年05月07日 02:22