You and Me / Punk
加藤浩義

EXTREME

Level: 9
BPM: 132-135
Notes: 768

BPM: 132
1
口口口口 |----|
口口口口 |----|
口口口口 |----|
口口口口 |----|
2
⑥①⑤① |①-②-|
口④③⑥ |③-④⑤|
口口口口 |--⑥-|
⑦②⑦② |--⑦-|
3
口④⑤口 |①-②-|
①③①③ |③-④⑤|
口②口口 |----|
口口口口 |----|
4
⑥①口⑥ |①-②-|
口口⑤① |③-④⑤|
②④③⑦ |--⑥-|
口⑦②口 |--⑦-|
5
口口①口 |①---|
①③②④ |②-③-|
④②③口 |④---|
口口口口 |----|
6
口①⑤① |①-②-|
口④③口 |③-④⑤|
口口口口
口②口②

⑦口口口
口口口⑦
⑧⑥⑥口 |⑥-⑦-|
⑨口⑨⑧ |⑧-⑨-|
7
口④⑤口 |①-②-|
①③①③ |③-④⑤|
⑥②口⑥ |⑥---|
⑦口口⑦ |⑦---|
8
⑦①口⑦ |①-②-|
口口⑤① |③-④⑤|
②④③⑧ |⑥-⑦-|
⑥⑧②⑥ |--⑧-|
9
口①①口 |①---|
①口口① |----|
口①①口 |----|
口口口口 |----|
10
口口口口 |①②③④|
⑧④⑦口 |⑤⑥⑦⑧|
⑥③⑤①
口②口口

⑫⑪⑩⑨
口⑭口⑮
口⑯口⑬ |⑨⑩⑪⑫|
口口口口 |⑬⑭⑮⑯|
11
口口口口 |①②③④|
②口③口 |⑤⑥⑦⑧|
⑥口⑤口
④⑦①⑧

⑯⑨⑭⑮
⑬⑫口⑪
口⑩口口 |⑨⑩⑪⑫|
口口口口 |⑬⑭⑮⑯|
12
口⑦口口 |①②③④|
口口⑥⑧ |⑤⑥⑦⑧|
口⑤①口
口②③④

口口口口
⑨⑩⑯口
口⑮⑫⑪ |⑨⑩⑪⑫|
口⑬⑭口 |⑬⑭⑮⑯|
13
②④③① |①②③④|
口⑤口口 |⑤⑥⑦⑧|
口口口⑥
口⑦口⑧

⑯口口⑮
⑭口口⑬
⑫口⑪口 |⑨⑩⑪⑫|
⑩口⑨口 |⑬⑭⑮⑯|
14
口口口口 |①②③④|
⑧④⑦口 |⑤⑥⑦⑧|
⑥③⑤①
口②口口

⑫⑪⑩⑨
口⑭口⑮
口⑯口⑬ |⑨⑩⑪⑫|
口口口口 |⑬⑭⑮⑯|
15
口口口口 |①②③④|
②口③口 |⑤⑥⑦⑧|
⑥口⑤口
④⑦①⑧

⑯⑨⑭⑮
⑬⑫口⑪
口⑩口口 |⑨⑩⑪⑫|
口口口口 |⑬⑭⑮⑯|
16
口⑦口口 |①②③④|
口口⑥⑧ |⑤⑥⑦⑧|
口⑤①口
口②③④

口口口口
⑨⑩⑯口
口⑮⑫⑪ |⑨⑩⑪⑫|
口⑬⑭口 |⑬⑭⑮⑯|
17
②④③① |①②③④|
口⑤口口 |⑤⑥⑦⑧|
口口口⑥
口⑦口⑧

⑯口口⑮
⑭口口⑬
⑫口⑪口 |⑨⑩⑪⑫|
⑩口⑨口 |⑬⑭⑮⑯|
18
⑤口③④ |--①-|
口口⑤口 |--②-|
②③口① |--③-|
口①②口 |④-⑤-|
19
口口口口 |--①-|
③口口口 |②-③-|
口②③①
口①口口

口口口④
口④⑤⑥
口口口口 |--④-|
口⑥口口 |⑤-⑥-|
20
口口②⑤ |--①-|
④③口口 |--②-|
①②③口 |--③-|
⑤口①口 |④-⑤-|
21
①口口口 |--①-|
口②口③ |②-③-|
③口②口
口口口①

⑥口口⑥
④口⑤口
口④口⑤ |--④-|
口口口口 |⑤-⑥-|
22
④③口⑤ |--①-|
口⑤口口 |--②-|
①口③② |--③-|
口②①口 |④-⑤-|
23
口口口口 |--①-|
口口口③ |②-③-|
①③②口
口口①口

④口口口
⑥⑤④口
口口口口 |--④-|
口口⑥口 |⑤-⑥-|
24
⑤②口口 |--①-|
口口③④ |--②-|
口③②① |--③-|
口①口⑤ |④-⑤-|
25
口口口① |--①-|
③口②③ |②-③-|
③②口③ |----|
①④④口 |④---|
26
口口口① |①-②-|
②④口口 |③-④-|
③口③①
②④口口

口⑦口⑦
口口口口
口⑤口⑤ |--⑤-|
⑥口⑥口 |⑥-⑦-|
27
①口口口 |①-②-|
口口④② |③-④-|
①③口③
口口④②

口⑦口口
口口口⑥
⑤⑦⑤口 |--⑤-|
口口口⑥ |⑥-⑦-|
28
口口口① |①-②-|
②④口口 |③-④-|
③口③①
②④口口

口⑦口⑦
口口口口
口⑤口⑤ |--⑤-|
⑥口⑥口 |⑥-⑦-|
29
①口口口 |①-②-|
口口④② |③-④-|
①③口③
口口④②

⑦口口⑦
⑥口口⑥
口口⑤口 |--⑤-|
口⑤口口 |⑥-⑦-|
30
⑨⑮⑩口 |①②③④|
⑬⑪⑭⑫ |⑤⑥⑦⑧|
⑧②⑦① |-⑨⑩⑪|
④⑥③⑤ |⑫⑬⑭⑮|
31
⑨⑮⑩口 |①②③④|
⑬⑪⑭⑫ |⑤⑥⑦⑧|
⑧②⑦① |-⑨⑩⑪|
④⑥③⑤ |⑫⑬⑭⑮|
32
⑨⑮⑭⑫ |①②③④|
⑬⑪⑩口 |⑤⑥⑦⑧|
④⑥⑦① |-⑨⑩⑪|
⑧②③⑤ |⑫⑬⑭⑮|
33
口口口口 |①②③④|
口口口口 |⑤⑥⑦⑧|
④⑥⑦①
⑧②③⑤

⑬⑮口⑭
口⑨⑩口
口口口口 |-⑨⑩⑪|
口⑪⑫口 |⑫⑬⑭⑮|

BPM: 69.13
34
③口口② |①---|
①③②①
①②③①
②口口③

BPM: 81.2
③口口②
①③②① |②---|
①②③①
②口口③

BPM: 51.5
③口口②
①③②①
①②③① |③---|
②口口③ |----|

BPM: 135
35
④口④口 |①---|
③口③口 |②---|
②口②口 |③---|
①口①口 |④---|
36
口④口④ |①---|
口③口③ |②---|
口②口② |③---|
口①口① |④---|
37
④口④口 |①---|
③口③口 |②---|
②口②口 |③---|
①口①口 |④---|
38
口④口④ |①---|
口③口③ |②---|
口②口② |③---|
口①口① |④---|
39
⑦口⑦④ |①-②-|
⑤⑥⑤⑧ |③-④-|
③②③口 |⑤-⑥-|
①口①口 |⑦-⑧-|
40
口⑦⑧⑦ |①-②-|
②⑤④⑤ |③-④-|
⑥③口③ |⑤-⑥-|
口①口① |⑦-⑧-|
41
⑦口⑦④ |①-②-|
⑤⑥⑤⑧ |③-④-|
③②③口 |⑤-⑥-|
①口①口 |⑦-⑧-|
42
口③口③ |①--②|
③口③口 |--③-|
①②①② |----|
口①②口 |----|
43
口⑧⑤① |①②③④|
④口口口 |⑤⑥⑦⑧|
口②⑦口
⑥口口③

口口口⑬
⑯⑫口⑨
⑭口口⑮ |⑨⑩⑪⑫|
口⑩⑪口 |⑬⑭⑮⑯|
44
④⑫①⑨ |①②③④|
⑯⑧⑬⑤ |⑤⑥⑦⑧|
⑩②⑦⑮ |⑨⑩⑪⑫|
⑥⑭⑪③ |⑬⑭⑮⑯|
45
④口①口 |①②③④|
口⑧口⑤ |⑤⑥⑦⑧|
⑥口③口
②口口⑦

口⑯⑬口
⑫口⑨口
口口口⑪ |⑨⑩⑪⑫|
⑭⑩⑮口 |⑬⑭⑮⑯|
46
④口口① |①②③④|
⑧口口⑤ |⑤⑥⑦⑧|
②⑥③口
口口口⑦

⑯⑫⑬口
口口⑨口
⑭口口⑪ |⑨⑩⑪⑫|
口⑩⑮口 |⑬⑭⑮⑯|
47
口口口⑤ |①②③④|
④⑧口① |⑤⑥⑦⑧|
口⑥口⑦
②口口③

⑯⑫⑨口
口口⑬口
⑩口⑮口 |⑨⑩⑪⑫|
⑭口⑪口 |⑬⑭⑮⑯|
48
口⑧⑤口 |①②③④|
④口口① |⑤⑥⑦⑧|
口②口⑦
口⑥口③

⑫口口⑨
⑯⑩⑬口
口口⑪口 |⑨⑩⑪⑫|
⑭口口⑮ |⑬⑭⑮⑯|
49
口④①口 |①②③④|
口⑧口⑤ |⑤⑥⑦⑧|
⑥口⑦③
口②口口

口⑯⑬⑨
⑫口口口
口⑩口口 |⑨⑩⑪⑫|
⑭口⑪⑮ |⑬⑭⑮⑯|
50
口口口口 |①②③④|
⑧④①⑤ |⑤⑥⑦⑧|
⑥口口③
口②⑦口

⑫口⑨⑬
口口口口
⑯⑩⑪⑮ |⑨⑩⑪⑫|
⑭口口口 |⑬⑭⑮⑯|
51
口口口口 |①---|
口①①口 |----|
口口口口 |----|
口①①口 |----|
52
口口①口 |①---|
口口口① |②---|
口口口口 |----|
口②口口 |----|
53
口口口① |①---|
②口①口 |②---|
口口口口 |----|
口口口口 |----|
54
口④⑤口 |①-②-|
口⑥③口 |③-④-|
口②⑦口 |⑤-⑥-|
口⑧①口 |⑦-⑧-|
55
口口口口 |①---|
①口口① |----|
①口口① |----|
口口口口 |----|
56
口口①口 |①---|
口口口① |②---|
口口口口 |----|
口②口口 |----|
57
口口口① |①---|
②口①口 |②---|
口口口口 |----|
口口口口 |----|
58
口④⑤口 |①-②-|
口⑥③口 |③-④-|
口②⑦口 |⑤-⑥-|
口口①口 |⑦---|
59
口②②口 |①-②-|
口口口口 |--③-|
口口口口
①③③①

④⑤⑤④
⑤④④⑤
④⑤⑤④ |④---|
口口口口 |⑤---|
60
口口口口 |①---|
口口口口 |--②-|
口③③口 |----|
②①①② |③---|
61
⑦⑥⑤④ |-①②③|
口③②① |④⑤⑥⑦|
口⑩⑨⑧ |-⑧⑨⑩|
⑭⑬⑫⑪ |⑪⑫⑬⑭|
62
⑦⑥⑤④ |-①②③|
口③②① |④⑤⑥⑦|
⑪⑩⑨⑧ |⑧⑨⑩⑪|
⑫⑬⑭⑮ |⑫⑬⑭⑮|
63
⑤⑤口口 |----|
③④③⑤ |①-②-|
④②④① |③--④|
③④③⑤ |--⑤-|
64
口口①① |--①-|
①②②口 |--②-|
口③③口 |----|
①②②口 |③---|
65
⑧⑦⑥⑤ |①②③④|
口④③② |⑤⑥⑦⑧|
口口口口
口口口①

口口口口
口口口口
口⑪⑩⑨ |-⑨⑩⑪|
⑮⑭⑬⑫ |⑫⑬⑭⑮|
66
⑦⑥⑤④ |-①②③|
口③②① |④⑤⑥⑦|
口口口口
口口口口

口口口口
⑧口口⑮
⑨口口⑭ |⑧⑨⑩⑪|
⑩⑪⑫⑬ |⑫⑬⑭⑮|
67
口①①口 |①---|
口口口口 |----|
口①①口 |----|
口口口口 |----|

不確定度: 0

最終更新:2015年05月07日 02:21