プレインエイジア -PHQ remix-
PHQUASE

EXTREME

Level: 10
BPM: 182
Notes: 847

1
口口口口 |----|
口口口口 |----|
口口口口 |----|
口口口口 |----|
2
①③③② |①-②-|
⑩④⑤⑨ |③-④⑤|
口⑥⑦⑪ |⑥⑦⑧-|
口⑧口口 |⑨-⑩⑪|
3
口③口口 |①---|
口口口⑤ |----|
②口口口 |②-③-|
①口④口 |④-⑤-|
4
②④口① |①---|
口③③口 |②---|
口口口口 |③---|
①口口② |--④-|
5
①②③口 |----|
口③口口 |----|
口④口口 |--①-|
口口口口 |②-③④|
6
口口口① |①---|
口口②口 |②---|
③⑤④口 |③---|
口①口口 |④-⑤-|
7
口口口口 |----|
口①口口 |----|
口②②口 |--①-|
口③口口 |②-③-|
8
①⑦④② |①---|
口③③⑤ |②---|
口口⑥口 |③-④⑤|
②口口① |⑥-⑦-|
9
①⑧⑧口 |①-②-|
②⑦⑦口 |③-④-|
③⑥⑥口 |⑤-⑥-|
④⑤口口 |⑦-⑧-|
10
①⑤⑥② |①---|
⑤口口⑥ |②---|
③口口④ |③-④-|
②③④① |⑤-⑥-|
11
⑦⑦⑦⑦ |①-②-|
口①②口 |③-④-|
口③④口 |⑤-⑥-|
⑥⑤口⑥ |⑦---|
12
口口口口 |①---|
①⑧口② |②---|
②③④① |③④⑤⑥|
⑦⑤⑥口 |-⑦-⑧|
13
②⑦⑧⑤ |-①②-|
⑥口③⑨ |③-④⑤|
①口口④ |⑥-⑦-|
口口口口 |⑧-⑨-|
14
口口口口 |--①-|
口口①口 |②③④⑤|
②③④⑤
口口口口

⑧口口⑧
口⑨⑩口
口口口口 |-⑥⑦-|
口⑥⑦口 |⑧-⑨⑩|
15
口⑤⑥口 |①②③④|
⑦口口④ |⑤⑥⑦⑧|
③口口⑧
①口口②

⑪口口⑫
口⑬⑭口
口⑨⑩口 |⑨⑩⑪⑫|
⑮口口⑯ |⑬⑭⑮⑯|
16
口口口口 |①---|
②口⑧① |②---|
①④③② |③④⑤⑥|
口⑥⑤⑦ |-⑦-⑧|
17
④⑧⑦② |--①②|
⑨⑤口⑥ |③④-⑤|
③口口① |⑥-⑦-|
口口口口 |⑧-⑨-|
18
口⑤⑦口 |----①-|
口③①口 |②---③-|
口口⑥口 |④---⑤-|
④②口口 |⑥---⑦-|
19
口④④口 |①---|
口口口口 |----|
口③④① |②-③-|
②口口⑤ |④-⑤-|
20
口口口口 |①---|
①⑧口② |②---|
②③④① |③④⑤⑥|
⑦⑤⑥口 |-⑦-⑧|
21
②⑦⑧⑤ |-①②-|
⑥口③⑨ |③-④⑤|
①口口④ |⑥-⑦-|
口口口口 |⑧-⑨-|
22
口口口口 |--①-|
口口①口 |②③④⑤|
②③④⑤
口口口口

⑧口口⑧
口⑨⑩口
口口口口 |-⑥⑦-|
口⑥⑦口 |⑧-⑨⑩|
23
口⑤⑥口 |①②③④|
⑦口口④ |⑤⑥⑦⑧|
③口口⑧
①口口②

⑪口口⑫
口⑬⑭口
口⑨⑩口 |⑨⑩⑪⑫|
⑮口口⑯ |⑬⑭⑮⑯|
24
⑤⑥⑦⑧ |①---|
②口④① |②---|
①口③② |③-④-|
口口口口 |⑤⑥⑦⑧|
25
口口口口 |①-②-|
⑨①口⑧ |③④⑤⑥|
⑩②口⑦ |⑦-⑧-|
⑥⑤④③ |⑨-⑩-|
26
③④⑤⑥ |①-②-|
口⑦②⑩ |③④⑤⑥|
口⑧①⑨ |⑦-⑧-|
口口口口 |⑨-⑩-|
27
口口口⑨ |①-②-|
①⑦口口 |③④⑤⑥|
②口⑩⑧ |⑦-⑧-|
⑥⑤④③ |⑨-⑩-|
28
①①①口 |①---|
口口口② |②---|
①口口口
口②②②

⑥口口⑥
③③③口
口⑤口④ |③-④-|
③口口口 |⑤-⑥-|
29
口⑦①口 |--①-|
口口⑥② |②-③-|
口⑤③口 |④-⑤-|
④口口口 |⑥-⑦-|
30
②口口② |①---|
⑤口口③ |②---|
口口口口 |③-④-|
⑥①①④ |⑤-⑥-|
31
⑧口口口 |①-②-|
口⑤⑥⑦ |③-④-|
⑧②①口 |⑤⑥⑦-|
口④③口 |⑧---|
32
口①①① |①---|
②口口口 |②---|
口口口①
②②②口

⑥口口⑥
口③③③
④口⑤口 |③-④-|
口口口③ |⑤-⑥-|
33
口①⑦口 |--①-|
②⑥口口 |②-③-|
口③⑤口 |④-⑤-|
口口口④ |⑥-⑦-|
34
②口口② |①---|
⑤口口③ |②---|
口口口口 |③-④-|
⑥①①④ |⑤-⑥-|
35
⑦口口口 |①-②-|
口⑥⑥⑤ |③-④-|
⑦④③口 |⑤-⑥-|
口②①⑤ |⑦---|
36
口①①① |①---|
②口口口 |②---|
口口口①
②②②口

⑥口口⑥
口③③③
④口⑤口 |③-④-|
口口口③ |⑤-⑥-|
37
口①⑦口 |--①-|
②⑥口口 |②-③-|
口③⑤口 |④-⑤-|
口口口④ |⑥-⑦-|
38
②口口② |①---|
③口口⑤ |②---|
口口口口 |③-④-|
④①①⑥ |⑤-⑥-|
39
口口口⑧ |①-②-|
⑦⑥⑤口 |③-④-|
口①②⑧ |⑤⑥⑦-|
口③④口 |⑧---|
40
①①①口 |①---|
口口口② |②---|
①口口口
口②②②

⑥口口⑥
③③③口
口⑤口④ |③-④-|
③口口口 |⑤-⑥-|
41
口⑦①口 |--①-|
口口⑥② |②-③-|
口⑤③口 |④-⑤-|
④口口口 |⑥-⑦-|
42
②口口② |①---|
③口口⑤ |②---|
口口口口 |③-④-|
④①①⑥ |⑤-⑥-|
43
⑥⑥⑥⑥ |①-②-|
口③④口 |③-④-|
口①②口 |⑤-⑥-|
口⑤⑤口 |----|
44
口口口口 |①---|
①②口① |----|
①口口① |----|
口口口口 |--②-|
45
口口口口 |----|
口口口口 |----|
口口口口 |----|
口口口口 |----|
46
口口口口 |①---|
口口①口 |----|
口口②口 |----|
口口口口 |--②-|
47
①口口① |----|
口口口口 |①---|
口口口口 |----|
口口口口 |----|
48
口口口口 |①---|
口①口口 |----|
口③口口 |②---|
①②口口 |--③-|
49
口口口口 |①---|
口口口口 |----|
口口口口 |②---|
口口①② |----|
50
④③②① |①---|
口口①口 |②---|
口口口口 |③---|
口口口口 |④---|
51
⑩⑩⑩⑩ |①-②-|
③⑤④口 |③-④⑤|
②⑦⑥口 |⑥⑦⑧⑨|
①⑨⑧① |⑩---|
52
口口口口 |①②③④|
④⑧⑦① |⑤⑥⑦⑧|
②口口⑤
⑥口口③

⑭⑯口⑬
口口口⑮
口⑩⑪口 |⑨⑩⑪⑫|
口⑫⑨口 |⑬⑭⑮⑯|
53
口口①口 |①②③④|
②⑥⑤口 |⑤⑥⑦⑧|
⑧口口⑦
④口口③

⑯⑮⑭⑬
口口口口
口⑫⑪口 |⑨⑩⑪⑫|
口⑩⑨口 |⑬⑭⑮⑯|
54
口口口口 |①②③④|
①⑤⑧④ |⑤⑥⑦⑧|
口口口⑥
③⑦口②

⑬口口⑭
⑮口口口
⑨⑪⑫口 |⑨⑩⑪⑫|
口口⑩⑯ |⑬⑭⑮⑯|
55
口③⑥口 |①②③④|
口口口② |⑤⑥⑦⑧|
⑦口口④
①⑤⑧口

⑪口口⑫
⑬⑭⑮⑯
口⑨⑩口 |⑨⑩⑪⑫|
口口口口 |⑬⑭⑮⑯|
56
口⑥⑤口 |①②③④|
口口口口 |⑤⑥⑦⑧|
④口口①
②⑧⑦③

⑫口口⑨
⑭口口⑬
口⑩⑪⑮ |⑨⑩⑪⑫|
⑯口口口 |⑬⑭⑮⑯|
57
口⑥③⑦ |①②③④|
口④⑤口 |⑤⑥⑦⑧|
②口口口
口⑧口①

⑩口口口
⑫口口⑪
⑯⑮⑭⑬ |⑨⑩⑪⑫|
口口⑨口 |⑬⑭⑮⑯|
58
⑦⑤⑥口 |①②③④|
口③②⑧ |⑤⑥⑦⑧|
口口口口
①口口④

口口口⑩
⑨口⑯口
口⑬⑫口 |⑨⑩⑪⑫|
⑮⑪⑭口 |⑬⑭⑮⑯|
59
⑤口口⑧ |①②③④|
⑦①口⑥ |⑤⑥⑦⑧|
③口口④
口口口②

口⑨⑫口
口口口口
口⑪⑩口 |⑨⑩⑪⑫|
⑬⑭⑮⑯ |⑬⑭⑮⑯|
60
⑧口口⑦ |①②③④|
④⑥⑤③ |⑤⑥⑦⑧|
②口口①
口口口口

口⑫⑪口
口口口口
⑯⑩⑨⑮ |⑨⑩⑪⑫|
口⑭⑬口 |⑬⑭⑮⑯|
61
口口口口 |①②③④|
②⑥⑤① |⑤⑥⑦⑧|
口⑧⑦口
④口口③

口⑩⑨⑬
口口口⑭
口口口⑮ |⑨⑩⑪⑫|
口⑫⑪⑯ |⑬⑭⑮⑯|
62
①口⑥口 |①②③④|
③口②口 |⑤⑥⑦⑧|
⑦口④口
⑤口⑧口

⑮口口⑩
口⑬⑯口
口⑨口⑫ |⑨⑩⑪⑫|
口⑪口⑭ |⑬⑭⑮⑯|
63
口⑤④⑧ |①②③④|
①口口口 |⑤⑥⑦⑧|
口⑦②口
③口⑥口

⑬口口口
⑭⑪口⑩
⑮口口⑫ |⑨⑩⑪⑫|
⑯⑨口口 |⑬⑭⑮⑯|
64
口口②口 |①---|
口口口② |----|
③口①口 |--②-|
口③口① |--③-|
65
口②口口 |----|
②口口口 |----|
口口口① |①---|
口口①口 |②---|
66
口口①② |----|
口③④① |①--②|
口②③口 |--③-|
④口口口 |-④--|
67
⑤口口④ |①---|
口口口口 |----|
①③②口 |②-③-|
口①口口 |④-⑤-|
68
⑥①②⑥ |①---|
①③③② |②---|
④③③⑤ |③-④-|
②口口① |⑤-⑥-|
69
⑦口口⑦ |--①-|
①③④② |②-③-|
口⑤⑥口 |④-⑤-|
③①②④ |⑥-⑦-|
70
⑦口口⑦ |--①-|
②④③① |②-③-|
口⑥⑤口 |④-⑤-|
④②①③ |⑥-⑦-|
71
⑥⑥⑥⑥ |--①-|
①③④② |②-③-|
⑤口口⑤ |④-⑤-|
③①②④ |⑥---|
72
⑥口口⑥ |①---|
②③③③ |②---|
④①①⑤ |③-④-|
②②②③ |⑤-⑥-|
73
口①口口 |--①-|
②⑥⑤口 |②-③-|
口③口口 |④-⑤-|
⑦口口④ |⑥-⑦-|
74
②口口② |①---|
口④③口 |②---|
口⑥⑤口 |③-④-|
口①①口 |⑤-⑥-|
75
口②①口 |①-②-|
②⑥⑥① |③-④-|
③口口④ |⑤---|
⑤③④⑤ |⑥---|
76
⑥②②② |①---|
③⑤④口 |②---|
⑥①①② |③-④-|
③③③口 |⑤-⑥-|
77
口⑦①口 |--①-|
口口⑥② |②-③-|
口⑤③口 |④-⑤-|
④口口口 |⑥-⑦-|
78
②口口② |①---|
⑤口口③ |②---|
口口口口 |③-④-|
⑥①①④ |⑤-⑥-|
79
⑧口口口 |①-②-|
口⑤⑥⑦ |③-④-|
⑧②①口 |⑤⑥⑦-|
口④③口 |⑧---|
80
口①①① |①---|
②口口口 |②---|
口口口①
②②②口

⑥口口⑥
口③③③
④口⑤口 |③-④-|
口口口③ |⑤-⑥-|
81
口①⑦口 |--①-|
②⑥口口 |②-③-|
口③⑤口 |④-⑤-|
口口口④ |⑥-⑦-|
82
②口口② |①---|
⑤口口③ |②---|
口口口口 |③-④-|
⑥①①④ |⑤-⑥-|
83
⑥口口⑥ |①-②-|
口⑤⑤口 |③-④-|
⑥④③⑥ |⑤-⑥-|
口②①口 |----|
84
⑨口口⑨ |①-②-|
①④⑤① |③-④⑤|
⑩⑥⑦⑪ |⑥⑦⑧-|
②⑧口③ |⑨-⑩⑪|
85
口①①口 |①---|
口口口口 |----|
口口口口 |----|
口口口口 |----|

不確定度: 0

最終更新:2016年04月18日 00:43