Russian Caravan Rhapsody
Power Of Nature

EXTREME

Level: 10
BPM: 158
Notes: 845

1
口口口口 |----|
口口口口 |----|
口口口口 |----|
口口口口 |----|
2
口口口口 |①---|
①口口① |--②-|
②口口口
①口口①

口③③④
⑤口口口
口③③口 |③--④|
口口口口 |--⑤-|
3
口⑤④口 |①-②-|
口①①口 |③-④⑤|
③口口口 |----|
口①①② |----|
4
①口口① |①---|
②口口口 |--②-|
①口口①
口口口口

口口口口
口③③口
⑤口口口 |③--④|
口③③④ |--⑤-|
5
口①①口 |①-②-|
口口口② |----|
口①①口 |----|
口口口口 |----|
6
口口⑤② |①-②③|
口⑥③口 |④-⑤⑥|
口口口④
①口口①

口⑧口⑪
⑨口⑫口
口⑩⑦口 |⑦-⑧⑨|
口口口口 |⑩-⑪⑫|
7
口⑤②口 |①-②③|
⑥③口口 |④-⑤⑥|
口口口口
口口④①

口口⑪⑧
口⑫⑨口
口口口⑩ |⑦-⑧⑨|
口⑦口口 |⑩-⑪⑫|
8
②口⑦口 |①-②-|
口⑥③① |--③④|
②④口⑦ |⑤--⑥|
⑥口⑤① |--⑦-|
9
①⑤口口 |①-②-|
口口④② |③-④⑤|
口口口口 |----|
口③口口 |----|
10
④⑧口① |①-②③|
口口口⑦ |④-⑤⑥|
②③口① |⑦-⑧-|
口口⑥⑤ |----|
11
①⑨⑩② |①②③④|
⑤⑬⑭⑥ |⑤⑥⑦⑧|
⑪③④⑫ |⑨⑩⑪⑫|
⑮⑦⑧⑯ |⑬⑭⑮⑯|
12
①④⑤② |①-②-|
①口口② |③-④⑤|
⑥③③⑦ |⑥---|
口⑥口口 |⑦---|
13
①⑤⑫⑧ |①②③④|
⑨⑬④⑯ |⑤⑥⑦⑧|
⑮③⑭⑩ |⑨⑩⑪⑫|
⑦⑪⑥② |⑬⑭⑮⑯|
14
①②⑮⑧ |①②③④|
⑨⑩⑦⑯ |⑤⑥⑦⑧|
⑬⑥⑪⑫ |⑨⑩⑪⑫|
⑤⑭③④ |⑬⑭⑮⑯|
15
①①口③ |①-②③|
口④⑦口 |④⑤⑥⑦|
口⑥⑤口
②口口口

⑫口⑪⑮
⑧口口口
口口口⑨ |⑧⑨⑩⑪|
⑭⑩口⑬ |⑫⑬⑭⑮|
16
⑦①口⑦ |①-②-|
③④⑤② |③-④⑤|
①⑧⑨③ |--⑥-|
⑥口②⑥ |⑦-⑧⑨|
17
口③口口 |①-②-|
①口④① |--③④|
口口口口
口②②口

口口⑥⑥
口⑤口口
口口口口 |⑤--⑥|
⑦⑦口口 |--⑦-|
18
①口口口 |①-②-|
口⑤④口 |③-④⑤|
口③口口
口口口②

口口口⑥
⑦口口口
口⑪⑩口 |--⑥⑦|
口⑨⑧口 |⑧⑨⑩⑪|
19
口口④⑤ |①-②③|
口③⑥④ |④-⑤⑥|
②口口①
口口口①

口口口口
⑧口口口
口⑨⑫口 |⑦-⑧⑨|
⑦⑪口⑩ |⑩-⑪⑫|
20
③口口② |①--②|
口①④④ |--③-|
③⑤⑤② |--④⑤|
⑥⑥口口 |⑥---|
21
⑦⑧②① |①②③④|
③④⑩⑨ |⑤⑥⑦⑧|
口⑬⑬口 |⑨⑩⑪⑫|
⑪⑫⑥⑤ |⑬---|
22
口口①① |①---|
②③④⑤ |②③④⑤|
口口口口
口口口口

⑭⑮⑯⑰
口口口口
⑩⑪⑫⑬ |⑥⑦⑧⑨|
⑥⑦⑧⑨ |⑩⑪⑫⑬⑭⑮⑯⑰|
23
③口口口 |①---|
①①口口 |----|
口口口口 |②---|
②口口② |③---|
24
口口口口 |①---|
口②口口 |----|
口口①口 |②---|
②口口② |----|
25
口口②口 |①---|
口口口口 |--②-|
口口①口
口口口口

口口口③
口口口口
口口⑤口 |-③--|
口口口④ |--④⑤|
26
③⑦②口 |①--②|
口①⑧④ |--③④|
⑤⑨⑫口 |⑤⑥⑦⑧|
⑪口⑩⑥ |⑨⑩⑪⑫|
27
口⑥口② |①---|
①口口口 |--②-|
⑤口口口 |③-④-|
口④口③ |⑤-⑥-|
28
②口②口 |①---|
口口口口 |----|
口口口口 |②---|
口口①口 |----|
29
②口④③ |①---|
口口⑥⑤ |--②-|
口口⑧⑦ |--③④|
口①口① |⑤⑥⑦⑧|
30
④④口口 |①--②|
②口口口 |--③-|
口口⑤口 |④---|
口③口① |⑤---|
31
口口①① |①-②③|
②③④⑩ |④-⑤⑥|
⑧⑨⑫⑪ |⑦-⑧⑨|
口⑦⑥⑤ |⑩-⑪⑫|
32
①口③② |①-②③|
⑤⑥⑫⑪ |④-⑤⑥|
⑧⑨⑩口 |⑦-⑧⑨|
④口口⑦ |⑩-⑪⑫|
33
①口③② |①---|
④⑤⑪⑧ |②③④⑤|
口口⑩⑦ |⑥-⑦-⑧-|
口口⑨⑥ |⑨-⑩-⑪-|
34
口口口口 |①-②-③-|
③⑥口口 |④-⑤-⑥-|
②⑤口口
①④口口

口口口⑦
口口口口
口口⑨口 |⑦---|
⑧口口口 |⑧-⑨-|
35
①④口口 |①-②③|
口口③⑤ |④⑤⑥⑦|
⑥②口口
口口口⑦

⑫口口⑪
口⑩口口
口口⑬⑨ |⑧⑨⑩⑪|
口⑧口口 |⑫-⑬-|
36
口④口口 |①-②③|
口口③⑤ |④⑤⑥⑦|
⑥②口口
①口口⑦

⑫口⑪口
口⑩口口
口⑬⑨口 |⑧⑨⑩⑪|
口⑧口口 |⑫-⑬-|
37
口②口④ |①②③④|
①⑥③⑧ |⑤⑥⑦⑧|
⑤口⑦口
口口口口

口⑭口⑯
⑬口⑮口
口⑩口⑫ |⑨⑩⑪⑫|
⑨口⑪口 |⑬⑭⑮⑯|
38
①口口口 |①-②-|
口③口② |③-④⑤|
①④口⑤
④③⑤②

⑩⑥⑦⑪
⑧口⑨口
⑫口⑬口 |⑥⑦⑧⑨|
口口口口 |⑩⑪⑫⑬|
39
口口②口 |①---|
口口⑤口 |--②-|
⑥④口口 |③-④-|
口①③口 |⑤-⑥-|
40
②④④② |①-②-|
③①⑤口 |③-④-|
口⑤②④ |⑤---|
①③③① |----|
41
口③口④ |①-②-|
②口口⑤ |③---|
⑥口口口 |--④-|
①口口口 |⑤-⑥-|
42
④②②④ |①-②-|
①口③口 |③-④-|
口④口②
③①①③

口⑥口口
口⑤口口
口口⑤口 |⑤---|
口口口口 |--⑥-|
43
口口口口 |----|
口口③口 |----|
④②口口 |①-②-|
口口①口 |③-④-|
44
②④④② |①-②-|
③①⑤口 |③-④-|
口⑤②④ |⑤---|
①③③① |----|
45
②口口⑤ |①-②③|
③⑧⑪⑥ |④-⑤⑥|
④⑨⑫⑦ |⑦-⑧⑨|
①⑩口① |⑩-⑪⑫|
46
②②口⑤ |①-②-|
④⑩⑧⑨ |--③④|
⑥⑦⑪③ |⑤--⑥⑦⑧|
口口①① |⑨-⑩⑪|
47
③⑨⑪⑤ |①-②-③-|
⑥口⑧口 |④-⑤-⑥-|
⑫口口⑩ |⑦-⑧-⑨-|
①⑦④② |⑩-⑪-⑫-|
48
口⑦口口 |①-②-③-|
⑤口口① |④-⑤-⑥-|
口②口口 |⑦---|
口④③⑥ |----|
49
①⑨⑩② |①②③④|
⑤⑬⑭⑥ |⑤⑥⑦⑧|
⑪③④⑫ |⑨⑩⑪⑫|
⑮⑦⑧⑯ |⑬⑭⑮⑯|
50
①④⑤② |①-②-|
①口口② |③-④⑤|
⑥③③⑦ |⑥---|
口⑥口口 |⑦---|
51
①⑤⑫⑧ |①②③④|
⑨⑬④⑯ |⑤⑥⑦⑧|
⑮③⑭⑩ |⑨⑩⑪⑫|
⑦⑪⑥② |⑬⑭⑮⑯|
52
①②⑮⑧ |①②③④|
⑨⑩⑦⑯ |⑤⑥⑦⑧|
⑬⑥⑪⑫ |⑨⑩⑪⑫|
⑤⑭③④ |⑬⑭⑮⑯|
53
①①口③ |①-②③|
口④⑦口 |④⑤⑥⑦|
口⑥⑤口
②口口口

⑫口⑪⑮
⑧口口口
口口口⑨ |⑧⑨⑩⑪|
⑭⑩口⑬ |⑫⑬⑭⑮|
54
⑦①口⑦ |①-②-|
③④⑤② |③-④⑤|
①⑧⑨③ |--⑥-|
⑥口②⑥ |⑦-⑧⑨|
55
口③口口 |①-②-|
①口④① |--③④|
口口口口
口②②口

口口⑥⑥
口⑤口口
口口口口 |⑤--⑥|
⑦⑦口口 |--⑦-|
56
①口口口 |①-②-|
口⑤④口 |③-④⑤|
口③口口
口口口②

口⑥⑦口
口口口口
口口口口 |--⑥⑦|
⑧⑨⑩⑪ |⑧⑨⑩⑪|
57
①⑬⑭② |①②③④|
⑨⑤⑥⑩ |⑤⑥⑦⑧|
③⑦⑧④ |⑨⑩⑪⑫|
⑪⑮⑯⑫ |⑬⑭⑮⑯|
58
③口⑥⑥ |①-②-|
⑦②口⑧ |③-④⑤|
①④⑤口 |⑥-⑦⑧|
⑨⑩⑪⑫ |⑨⑩⑪⑫|
59
①口口口 |①-②③|
⑥②③⑦ |④⑤⑥⑦|
①④⑤口
口口口口

口⑩⑪口
口⑭⑮口
⑫口口⑬ |⑧⑨⑩⑪|
口⑧⑨口 |⑫⑬⑭⑮|
60
①⑦⑧⑧ |①②③④|
⑤⑨⑨④ |⑤⑥⑦-|
⑩⑩⑥口 |--⑧-|
③口口② |--⑨⑩|
61
②②口口 |①---|
口口口口 |②-③-|
口口口口
③①①口

口口④④
口⑥⑥口
口口口口 |④-⑤-|
口⑦口⑤ |⑥-⑦-|
62
①①③③ |①-②-|
⑤⑦⑦⑤ |③-④-|
⑧口口口 |⑤-⑥-|
④⑨②⑥ |⑦-⑧⑨|
63
②口④口 |①-②-|
口口口③ |--③④|
口口口口
口口①口

口⑤口口
口口口口
口⑦⑥口 |⑤-⑥-|
⑦⑧⑧⑥ |⑦-⑧-|
64
①⑥⑦④ |①②③④|
⑤②③⑧ |⑤⑥⑦⑧|
口⑩⑨口 |----|
口⑫⑪口 |⑨⑩⑪⑫|
65
口口④⑤ |①-②③|
口③⑥④ |④-⑤⑥|
②口口①
口口口①

口口口口
⑧口口口
口⑨⑫口 |⑦-⑧⑨|
⑦⑪口⑩ |⑩-⑪⑫|
66
③口口② |①--②|
口①④④ |--③-|
③⑤⑤② |--④⑤|
⑥⑥口口 |⑥---|
67
口口③② |①-②③|
⑤④口口 |④-⑤⑥|
④⑥口口
口口①①

口口口口
口口⑨⑧
口口口⑦ |⑦-⑧⑨|
⑩口⑫⑪ |⑩-⑪⑫|
68
④④③② |①--②|
口①口③ |--③-|
①口②口 |--④-|
口⑤⑤口 |⑤---|
69
口口④⑤ |①-②③|
口③⑥④ |④-⑤⑥|
②口口①
口口口①

口口口口
⑧口口口
口⑨⑫口 |⑦-⑧⑨|
⑦⑪口⑩ |⑩-⑪⑫|
70
③口口② |①--②|
口①④④ |--③-|
③⑤⑤② |--④⑤|
⑥⑥口口 |⑥---|
71
③⑦②⑧ |①-②-|
口④⑨口 |③④⑤-|
⑤口口⑩ |⑥-⑦-|
口⑥①口 |⑧⑨⑩-|
72
③口②口 |①-②-|
⑦④口口 |③④⑤⑥|
⑩⑧⑤口 |⑦⑧⑨⑩|
①⑪⑨⑥ |⑪---|
73
②②①① |①---|
口口口口 |----|
②口口① |②---|
口口口口 |----|
74
⑩口口⑤ |①②③④|
口①④⑥ |-⑤-⑥|
口③②⑦ |-⑦⑧⑨|
⑧口口⑨ |⑩---|
75
口①①口 |①---|
口①口口 |----|
口口①口 |----|
口①①口 |----|

不確定度: 0

最終更新:2016年04月18日 00:38