Jailbreak
Kozo Nakamura

ADVANCED

Level: 6
BPM: 250
Notes: 506

1
口口口口 |----|
口口口口 |----|
口口口口 |----|
口口口口 |----|
2
口口口口 |①---|
口①①口 |②---|
口②②口 |③---|
口③③口 |----|
3
①口口① |①---|
③口口③ |----②-|
口口口口 |----|
②口口② |----③-|
4
①口口口 |----|
口口②口 |①---|
③口口口 |②---|
口口口口 |③---|
5
口②口① |①---|
口④口③ |②---|
口口口口 |③---|
口口口口 |④---|
6
⑤口口⑤ |①---|
口口口口 |②---|
②口①口 |③---|
④口③口 |④---⑤-|
7
口②②口 |----|
口口口口 |----①-|
口①①口 |----|
口口口口 |----②-|
8
口口口① |----|
口②口口 |①---|
口口口③ |②---|
口口口口 |③---|
9
①口②口 |①---|
③口④口 |②---|
口口口口 |③---|
口口口口 |④---|
10
⑤口口⑤ |①---|
口口口口 |②---|
口①口② |③---|
口③口④ |④---⑤-|
11
口口口口 |----|
口口口口 |----①-|
口①①口 |----|
②口口② |----②-|
12
①口口口 |----|
口口口② |①---|
③口口口 |②---|
口口口口 |③---|
13
口②口① |①---|
④口③口 |②---|
口口口口 |③---|
口口口口 |④---|
14
口口口口 |①---|
口⑤⑤口 |②---|
口②口① |③---|
④口③口 |④---⑤-|
15
口②②口 |----|
口口口口 |----①-|
①口口① |----|
口口口口 |----②-|
16
口口口① |----|
②口口口 |①---|
口口口③ |②---|
口口口口 |③---|
17
①口②口 |①---|
口③口④ |②---|
口口口口 |③---|
口口口口 |④---|
18
口口口口 |①---|
口口口口 |②---|
①口②口 |③---|
口③口④ |④---|
19
①口口口 |①---②-|
①③②口 |----③-|
口口口口 |----|
④口口口 |④---|
20
口口口① |①---②-|
口口口① |----③-|
口口口口 |----|
口口②③ |----|
21
①口口口 |①---②-|
①③②口 |----③-|
口口口口 |----|
④口口口 |④---|
22
口口口① |①---②-|
口口口① |----③-|
口口口口 |----|
口口②③ |----|
23
②口口④ |①---|
口①③口 |②---|
口①③口 |③---|
口口口口 |④---|
24
口②④口 |①---|
①口口③ |②---|
①口口③ |③---|
口口口口 |④---|
25
口⑤⑤口 |①-②-|
③口口④ |--③-|
③①①④ |--④-|
口②②口 |--⑤-|
26
②口口② |①---|
口①①口 |②---|
口口口口 |③---|
③口口③ |----|
27
口口口口 |①---|
口③口口 |②---|
口口②口 |③---|
口①④口 |④---|
28
③③④④ |①---|
①口②口 |②---③-|
口口口口 |----④-|
口口口口 |----|
29
口口口口 |①---|
口③口口 |②---|
口口②口 |③---|
口①④口 |④---|
30
①口口② |①---|
①口口② |②---|
③口口④ |③---|
口口口口 |④---|
31
口口口口 |①---|
口③口口 |②---|
口口②口 |③---|
口①④口 |④---|
32
③③④④ |①---|
①口②口 |②---③-|
口口口口 |----④-|
口口口口 |----|
33
口口口口 |①---|
口③口口 |②---|
口口②口 |③---|
口①④口 |④---|
34
①口口② |①---|
①口口② |②---|
③口口④ |③---|
口口口口 |④---|
35
口口口口 |①---|
口③口口 |②---|
口口②口 |③---|
口①④口 |④---|
36
③③④④ |①---|
①口②口 |②---③-|
口口口口 |----④-|
口口口口 |----|
37
口口口口 |①---|
口③口口 |②---|
口口②口 |③---|
口①④口 |④---|
38
①口口② |①---|
①口口② |②---|
③口口④ |③---|
口口口口 |④---|
39
口口口口 |①---|
口③口口 |②---|
口口②口 |③---|
口①④口 |④---|
40
③③④④ |①---|
①口②口 |②---③-|
口口口口 |----④-|
口口口口 |----|
41
口口口口 |①---|
口③口口 |②---|
口口②口 |③---|
口①④口 |④---|
42
①口口② |①---|
①口口② |②---|
③口口④ |③---|
口口口口 |④---|
43
口①口口 |①----②--|
⑥口口口 |③----④--|
口②③口 |-----⑤--|
④口口⑤ |-----⑥--|
44
②口②口 |①---|
口①口口 |-----②--|
②口②口 |----|
口口口口 |----|
45
口①口口 |①----②--|
口口③② |③----④--|
口⑥口口 |-----⑤--|
④口⑤口 |-----⑥--|
46
口口口口 |①---|
口②口② |-----②--|
口口①口 |----|
口②口② |----|
47
②③口① |①---②-|
口口④口 |③---④-|
⑥口⑤口 |----⑤-|
口口口口 |----⑥-|
48
④口口口 |①---②-|
⑥口口⑤ |③---④-|
口口口口 |----⑤-|
①口③② |----⑥-|
49
口①①口 |----①-|
口②②口 |--②---|
口③③口 |③---④-|
⑤④④⑤ |--⑤---|
50
口口口口 |①---|
口②②口 |----|
①口口① |②---|
口口口口 |----|
51
口①口口 |①---|
口口口口 |----②-|
②②口口 |----|
口口口口 |----|
52
口口口口 |----|
①②口口 |①---|
口口口口 |----|
口口口口 |②---|
53
口口①口 |①---|
口口口口 |----②-|
口口②② |----|
口口口口 |----|
54
口口口口 |----|
口口②① |①---|
口口口口 |----|
口口口口 |②---|
55
②②口口 |①---|
口口口口 |----②-|
口①口口 |----|
口口口口 |----|
56
口口口口 |----|
①②口口 |①---|
口口口口 |----|
口口口口 |②---|
57
口口②② |①---|
口口口口 |----②-|
口口①口 |----|
口口口口 |----|
58
口口口口 |----|
口口口① |①---|
口口②口 |----|
口口口口 |②---|
59
口①①口 |①---|
口口口口 |----|
口口口口 |----|
口口口口 |----|
60
口口口口 |----|
口口口口 |----|
口口口口 |----|
口口口口 |----|
61
口①①口 |①---|
口④④口 |----|
②口口③ |②---|
口口口口 |③---④-|
62
口口口口 |----|
口口口口 |----|
口口口口 |①---|
①口口② |②---|
63
②口口② |①---|
③口口③ |----②-|
口口口口 |----|
口①口口 |----③-|
64
口口口口 |----|
口口口口 |----①-|
①口②① |----|
口口口口 |②---|
65
①口口② |①---②-|
口③④口 |----③-|
⑤口口⑥ |④---|
口口口口 |⑤---⑥-|
66
口③③口 |----①-|
口口口口 |②---|
口④④口 |③---|
口①②口 |④---|
67
口口口口 |①---|
②④口口 |②---|
口口口口 |③---|
①③口口 |④---|
68
口口③① |①---|
口口口口 |②---|
口口④② |③---|
口口口口 |④---|
69
①②口口 |①---|
口③④口 |②---|
口口口口 |③---|
口口口口 |④---|
70
口口口口 |①---|
口口口口 |②---|
口④③口 |③---|
口口②① |④---|
71
④口口口 |①---|
③口口口 |②---|
②口口口 |③---|
①口口口 |④---|
72
口口口① |①---|
口口口② |②---|
口口口③ |③---|
口口口④ |④---|
73
口④④口 |①---|
口口口口 |②---|
口②③口 |③---|
口①口口 |----④-|
74
口口口口 |----|
口口口口 |----|
口口口口 |----|
口口口口 |----|
75
④口口口 |①---|
口③口口 |②---|
②口口口 |③---|
口①口口 |④---|
76
口口口④ |①---|
口口③口 |②---|
口口口② |③---|
口口①口 |④---|
77
口口④口 |①---|
口③口口 |②---|
口口②口 |③---|
①①口口 |④---|
78
①口口口 |①---|
①口口② |②---|
③口口口 |③---|
口口口④ |④---|
79
口口口口 |①---|
口①①口 |----|
口口口口 |----|
口口口口 |----|
80
④①①④ |①---②-|
⑤②②⑤ |--③---|
⑥③③⑥ |④---⑤-|
口口口口 |--⑥---|
81
口口口口 |①---|
口口口口 |----|
口口口口 |----|
①口口① |----|
82
①口口② |①---②-|
口③③口 |----③-|
口口口口 |----④-|
口④⑤口 |⑤---|
83
口口口口 |①---|
口口口口 |----|
①口口① |----|
口口口口 |----|
84
口口口口 |①---|
口口口口 |----|
口口口口 |----|
口①①口 |----|
85
口口口口 |①---|
口口口口 |----|
①口口① |----|
口口口口 |----|
86
①口口① |①---|
口①①口 |----|
口口口口 |----|
口口口口 |----|
87
⑤④④⑤ |①---②-|
⑥③③⑥ |--③---|
口②②口 |④---⑤-|
口①①口 |--⑥---|
88
口口口口 |①---|
口②②口 |----|
①口口① |②---|
口口口口 |----|
89
①口口① |①---|
③口口③ |----②-|
口口口口 |----|
②口口② |----③-|
90
①口口口 |----|
口口②口 |①---|
③口口口 |②---|
口口口口 |③---|
91
口②口① |①---|
口④口③ |②---|
口口口口 |③---|
口口口口 |④---|
92
⑤口口⑤ |①---|
口口口口 |②---|
②口①口 |③---|
④口③口 |④---⑤-|
93
口②②口 |----|
口口口口 |----①-|
口①①口 |----|
口口口口 |----②-|
94
口口口① |----|
口②口口 |①---|
口口口③ |②---|
口口口口 |③---|
95
①口②口 |①---|
③口④口 |②---|
口口口口 |③---|
口口口口 |④---|
96
⑤口口⑤ |①---|
口口口口 |②---|
口①口② |③---|
口③口④ |④---⑤-|
97
口口口口 |----|
口口口口 |----①-|
口①①口 |----|
②口口② |----②-|
98
①口口口 |----|
口口口② |①---|
③口口口 |②---|
口口口口 |③---|
99
口②口① |①---|
④口③口 |②---|
口口口口 |③---|
口口口口 |④---|
100
口口口口 |①---|
口⑤⑤口 |②---|
口②口① |③---|
④口③口 |④---⑤-|
101
口②②口 |----|
口口口口 |----①-|
①口口① |----|
口口口口 |----②-|
102
口口口① |----|
②口口口 |①---|
口口口③ |②---|
口口口口 |③---|
103
①口②口 |①---|
口③口④ |②---|
口口口口 |③---|
口口口口 |④---|
104
口口口口 |①---|
口口口口 |②---|
①口②口 |③---|
口③口④ |④---|
105
口①口口 |①----②--|
⑥口②③ |③----④--|
口④口口 |-----⑤--|
口口⑤口 |-----⑥--|
106
②口②口 |①---|
口①口口 |-----②--|
②口②口 |----|
口口口口 |----|
107
口①口口 |①----②--|
口口③② |③----④--|
口⑥口口 |-----⑤--|
④口⑤口 |-----⑥--|
108
口口口口 |①---|
口②口② |-----②--|
口口①口 |----|
口②口② |----|
109
②③口① |①---②-|
口口④口 |③---④-|
口口⑤口 |----⑤-|
口⑥口口 |----⑥-|
110
口口口口 |①----②--|
②③口① |③---④-|
口口口④ |----⑤-|
⑤口口⑥ |----⑥-|
111
口②③口 |①---②-|
口④⑤口 |③---④-|
①⑥⑦口 |⑤---⑥-|
口⑧口口 |⑦---⑧-|
112
②口口② |①---|
口口口口 |----|
口口口口 |②---|
口口①口 |----|


不确定度: 0

タグ:

+ タグ編集
  • タグ:

このサイトはreCAPTCHAによって保護されており、Googleの プライバシーポリシー利用規約 が適用されます。

最終更新:2012年11月10日 13:54