BEAT-NEW-WORLD
ビートまりお(COOL&CREATE)

EXTREME

Level: 10
BPM: 190
Notes: 940

1
口口口口 |----|
口口口口 |----|
口口口口 |----|
口口口口 |----|
2
口口口口 |----|
口口口口 |----|
口口口口 |----|
口口口口 |----|
3
③⑨④⑧ |①-②③|
口②⑦口 |④-⑤-|
口口口口 |⑥-⑦⑧|
⑤①⑥⑩ |⑨-⑩-|
4
③口④口 |①-②③|
口②口口 |④-⑤-|
口口口口
⑤①口口

口口口口
⑦口⑥口
⑨⑦⑧⑥ |⑥-⑦-|
口⑨口⑧ |⑧-⑨-|
5
③⑨④⑧ |①-②③|
口②⑦口 |④-⑤-|
口口口⑤ |⑥-⑦⑧|
⑥⑩①口 |⑨-⑩-|
6
③口④口 |①-②③|
⑤②口⑥ |④-⑤-|
口口口口 |⑥---|
⑤口①⑥ |----|
7
⑧④⑨③ |①-②③|
口⑦②口 |④-⑤-|
口口口口 |⑥-⑦⑧|
⑩⑥①⑤ |⑨-⑩-|
8
口④口③ |①-②③|
口口②口 |④-⑤-|
口口口口
口口①⑤

口口口口
口⑥口⑦
⑥⑧⑦⑨ |⑥-⑦-|
⑧口⑨口 |⑧-⑨-|
9
口④口③ |①-②③|
口口②口 |④-⑤-|
⑤口口口
口①口口

⑧口⑨口
口⑦口口
口口口⑩ |⑥-⑦⑧|
口⑩口⑥ |⑨-⑩-|
10
口②口口 |--①-|
④口⑥② |②-③-|
⑥口④口 |④-⑤-|
①口③⑤ |⑥---|
11
口②①⑨ |①-②③|
⑧③⑦⑥ |④-⑤-|
口口⑤口 |--⑥⑦|
口④口口 |⑧-⑨-|
12
口②口口 |①-②③|
⑨③口口 |④-⑤-|
⑤⑧⑦① |⑥-⑦-|
口④口⑥ |⑧-⑨-|
13
①口③⑩ |①-②③|
口⑤④⑪ |④-⑤-|
⑨⑧⑦⑥ |⑥⑦⑧⑨|
口口②口 |⑩-⑪-|
14
口⑤②口 |①-②③|
⑧⑦③口 |④-⑤-|
⑧⑦⑥口 |⑥-⑦-|
⑧①④口 |⑧---|
15
①口②⑩ |①-②③|
口口③⑤ |④-⑤-|
⑨⑧⑦⑥ |⑥⑦⑧⑨|
口⑪④口 |⑩-⑪-|
16
口⑨②口 |①-②③|
⑧①③口 |④-⑤-|
口⑦口口 |⑥-⑦-|
⑥口④⑤ |⑧-⑨-|
17
⑥口口口 |①-②③|
口⑪⑤口 |④-⑤-|
④⑩③② |⑥-⑦⑧|
⑨①⑧⑦ |⑨-⑩⑪|
18
③①⑥② |①--②|
口口③⑥ |--③-|
⑤口②④ |④-⑤-|
口④⑤口 |⑥---|
19
⑩①口⑤ |①-②③|
口③⑧口 |④⑤-⑥|
⑨①④⑪ |-⑦⑧⑨|
②⑥⑦口 |⑩-⑪-|
20
口口①口 |①-②③|
②③口④ |④-⑤-|
口⑤口口
口口口口

口⑦⑨口
口口口口
口口口口 |⑥-⑦-|
口⑧⑥口 |⑧-⑨-|
21
口⑧⑪③ |①-②③|
①口④⑩ |④⑤-⑥|
⑦⑤⑥口 |-⑦⑧⑨|
①口⑨② |⑩-⑪-|
22
②口⑧⑧ |①-②③|
③⑤⑧⑧ |④-⑤-|
⑦口⑦① |⑥-⑦-|
④⑥口⑥ |⑧---|
23
口①口口 |①-②③|
⑩⑥⑧⑪ |④⑤-⑥|
口③口⑤ |-⑦⑧⑨|
②⑨④⑦ |⑩-⑪-|
24
⑦口①⑨ |①-②③|
口⑤口口 |④-⑤-|
②③口④ |⑥-⑦-|
⑥口口⑧ |⑧-⑨-|
25
口①⑤口 |①--②|
⑤⑦⑥① |--③-|
②③③④ |④-⑤-|
⑦④②⑥ |⑥-⑦-|
26
①口口① |①---|
口口口口 |----|
口口口口 |----|
口口口口 |----|
27
口④③口 |①---|
④口②口 |----|
③②口口 |②---|
口口口① |③-④-|
28
①口口② |①---|
口口口③ |--②-|
口口口④ |--③-|
②③④⑤ |④-⑤-|
29
口口口口 |①---|
②①②口 |②---|
③口③口 |③---|
④口④口 |④---|
30
口①口口 |①---|
②口②口 |②-③-|
③口③口
口口口口

口⑥⑤口
口口口⑤
口④口⑥ |--④-|
口④口口 |⑤-⑥-|
31
口③④口 |①---|
口②口④ |----|
口口②③ |②---|
①口口口 |③-④-|
32
②③口口 |①---|
④口②口 |--②-|
口①口③ |--③-|
口口④② |--④-|
33
口口口口 |①---|
口口口② |②-③-|
①口口口
口①口③

口口④口
口⑥口口
口口⑤口 |④-⑤-|
口⑧⑦口 |⑥-⑦⑧|
34
④口口④ |①--②|
③⑤③⑤ |--③-|
②②⑥⑥ |④-⑤-|
①口口口 |⑥---|
35
口口口口 |①---|
口口②口 |--②③|
口③口口
口口口①

⑤口口口
口⑥口口
口口⑤口 |④--⑤|
④口口⑥ |--⑥-|
36
口②口口 |①---|
②口③口 |--②-|
①③口口 |----|
口①口口 |③---|
37
口口③口 |①---|
口口口② |--②-|
③口口① |----|
口②①口 |③---|
38
①口④④ |①---|
①④③口 |②---|
口①②③ |③---|
②②口③ |④---|
39
①②③④ |①---|
②口口口 |----|
③口口口 |②--③|
④口口口 |--④-|
40
口口口③ |①---|
口口③② |--②-|
口③①口 |----|
③②口口 |③---|
41
①①①③ |①---|
①①③② |--②-|
①③②② |----|
③②②② |③---|
42
①①口口 |①---|
①口口口 |----|
口口口口 |----|
口口口口 |----|
43
口口口口 |----|
口②②② |----|
口口①① |①---|
口口口口 |②---|
44
①①①① |①-②-|
③口⑧口 |③-④-|
⑤⑦⑥⑦ |⑤-⑥-|
⑦④②④ |⑦-⑧-|
45
①①②① |①-②-|
③口⑦④ |③-④-|
⑤⑧⑥口 |⑤-⑥-|
⑦口⑦④ |⑦-⑧-|
46
③口③口 |①-②-|
⑧①⑧⑦ |③-④-|
⑤口⑤② |⑤-⑥-|
⑥①⑥④ |⑦-⑧-|
47
③③⑤⑤ |①-②-|
⑦⑦⑧⑧ |③-④-|
口①口② |⑤-⑥-|
口口⑥④ |⑦-⑧-|
48
口口④口 |①-②-|
口口口口 |③-④-|
①口④②
①③口口

⑧⑥口口
口⑦口口
⑧⑥口口 |⑤-⑥-|
口口⑤口 |⑦-⑧-|
49
⑦⑤③① |①-②-|
⑧⑥④② |③-④-|
⑦⑤③① |⑤-⑥-|
①③⑤⑦ |⑦-⑧-|
50
口口②① |①-②-|
口口口口 |③-④-|
⑨⑧⑦⑨ |⑤-⑥⑦|
③④⑤⑥ |⑧-⑨-|
51
①①①① |①---|
②口口② |--②-|
口③④⑤ |--③④|
⑥②②⑤ |⑤-⑥-|
52
④口④② |①-②-|
③①①口 |③-④-|
口口口口
口口口口

口口口口
口⑧口⑧
⑤⑦口⑦ |⑤-⑥-|
口⑥口⑥ |⑦-⑧-|
53
口①④① |①-②-|
③口口⑨ |③-④-|
⑤⑧⑦⑥ |⑤-⑥⑦|
②⑧口口 |⑧-⑨-|
54
⑤口⑤② |①-②-|
③⑧③口 |③-④-|
⑥口⑥⑦ |⑤-⑥-|
①口①④ |⑦-⑧-|
55
口口④口 |①-②-|
②口口① |③-④-|
⑧③⑤⑦ |⑤-⑥-|
⑥③⑤⑦ |⑦-⑧-|
56
口④口② |①-②-|
①⑤①③ |③-④⑤|
口口口口
口口口口

口口口口
⑧口⑧口
口⑥⑥口 |⑥--⑦|
口⑦⑦口 |--⑧-|
57
④②①③ |①---|
口口口口 |②---|
①③④② |③---|
口口口口 |④---|
58
口③④口 |①---|
②①①② |----|
③④③④ |②--③|
①②②① |--④-|
59
①口口① |①---|
口①①口 |--②-|
口口口口
口②②口

口口口口
⑤⑤口口
④口④口 |--③-|
③口口③ |④-⑤-|
60
①口③① |①-②-|
口口⑦口 |③-④-|
⑦②口④ |⑤-⑥-|
⑤⑧口⑥ |⑦-⑧-|
61
①口③⑤ |①-②-|
口口⑦⑦ |③-④-|
口②口④ |⑤-⑥-|
口⑧口⑥ |⑦-⑧-|
62
⑤口口④ |①-②-|
⑦②口⑥ |③-④-|
口⑧口口 |⑤-⑥-|
①⑦③口 |⑦-⑧-|
63
口①②口 |①-②-|
口口口口 |③-④-|
④口口④ |⑤---|
⑤口③⑤ |----|
64
①④⑤口 |①-②-|
③口口口 |③-④⑤|
口①①口
口口②口

口口口⑥
口⑦⑦⑥
口⑨⑨口 |⑥--⑦|
⑧口口口 |⑧-⑨-|
65
⑦口④⑦ |①-②-|
⑤口口⑤ |③-④-|
③⑧⑧③ |⑤-⑥-|
⑥①①② |⑦-⑧-|
66
口①③口 |①-②-|
⑤①③⑦ |③-④-|
⑥口口⑧ |⑤-⑥-|
⑤④②⑦ |⑦-⑧-|
67
③①③口 |①---|
口③口口 |②---|
④②④口 |③---|
④②④口 |④---|
68
⑥口口① |①-②③|
③⑨④⑧ |④-⑤-|
口⑤⑩口 |⑥-⑦⑧|
口②⑦口 |⑨-⑩-|
69
⑨口①⑦ |①-②③|
③口④口 |④-⑤-|
口⑤口口 |⑥-⑦-|
⑧②口⑥ |⑧-⑨-|
70
口②口口 |①-②③|
③口④口 |④-⑤-|
口口口口
口①口⑤

口口口口
口⑨口⑧
⑪口⑦口 |⑥-⑦⑧|
口⑩⑥口 |⑨-⑩⑪|
71
①②①② |①-②-|
③口③口 |③-④-|
口④口④ |⑤---|
⑤口⑤口 |----|
72
①口①口 |①---|
⑤②⑤口 |--②③|
⑥③⑥口 |④--⑤|
口④口口 |--⑥-|
73
①口①口 |①---|
口②口② |②---|
口③口③ |③---|
④口④口 |④---|
74
口口口口 |①---|
①口①口 |----|
口口口口
口①口①

③②③②
④口口④
口③②口 |②--③|
口口口口 |--④-|
75
口口口口 |①---|
④①①④ |②---|
③口口③ |③---|
②①①② |④---|
76
口口口口 |①-②-|
口③⑥口 |③-④-|
⑧②⑤口 |⑤-⑥-|
⑦①④口 |⑦-⑧-|
77
⑧⑦⑫⑪ |①-②-|
⑩⑨⑭⑬ |③④⑤⑥|
口②⑥⑤ |⑦⑧⑨⑩|
口①④③ |⑪⑫⑬⑭|
78
口口口口 |①-②-|
⑩⑨⑧⑦ |③-④-|
④⑤⑥口 |⑤-⑥-|
①②③口 |⑦⑧⑨⑩|
79
①④④① |-①-②|
口⑥⑥口 |③-④-|
口⑤⑤口 |⑤---|
口③②口 |⑥---|
80
⑬⑦⑤③ |--①②|
①口⑪④ |③④⑤⑥|
⑭⑧⑥⑨ |⑦⑧⑨⑩|
②口⑫⑩ |⑪⑫⑬⑭|
81
口口⑤③ |①②③④|
⑦①口④ |⑤⑥⑦⑧|
口口⑥口
⑧②口口

口⑨口口
口⑮⑪口
口⑩口⑬ |⑨⑩⑪⑫|
口⑯⑫⑭ |⑬⑭⑮⑯|
82
①⑪③⑤ |①②③④|
⑦⑫⑨⑥ |⑤⑥⑦⑧|
②⑬④⑭ |⑨⑩-⑪|
⑧口⑩⑮ |⑫⑬⑭⑮|
83
①口②口 |①--②|
③⑤④口 |--③-|
①口②口 |④---|
③⑤④口 |⑤---|
84
①③⑤口 |--①②|
⑬⑪⑨⑦ |③④⑤⑥|
②④⑥口 |⑦⑧⑨⑩|
⑭⑫⑩⑧ |⑪⑫⑬⑭|
85
①③⑤口 |①②③④|
口口口⑦ |⑤⑥⑦⑧|
②④⑥口
口口口⑧

口口口口
⑭⑪⑨口
⑮口口⑬ |⑨⑩⑪⑫|
口⑫⑩口 |⑬-⑭⑮|
86
②③④口 |①-②③|
⑩⑧口⑥ |④⑤-⑥|
⑩⑤⑤⑨ |-⑦-⑧|
①口⑦⑥ |⑨-⑩-|
87
①③⑤⑦ |--①②|
⑫⑬⑭口 |③④⑤⑥|
口⑪⑩⑨ |⑦⑧⑨⑩|
②④⑥⑧ |⑪⑫⑬⑭|
88
①③⑤⑮ |①②③④|
⑫⑬⑭④ |⑤⑥⑦⑧|
②⑪⑩⑨ |-⑨⑩⑪|
⑥⑦⑧口 |⑫⑬⑭⑮|
89
②①⑤口 |①-②-|
口口口⑥ |③④-⑤|
③⑦⑦口 |⑥-⑦-|
⑧口口④ |⑧---|
90
①口口① |①-②-|
④②②④ |③-④-|
口口口口
口③③口

⑦⑦⑦⑦
口口口口
⑤⑦⑦⑤ |--⑤-|
⑥口口⑥ |⑥-⑦-|

不確定度: 0

最終更新:2016年04月18日 00:44