NEON WORLD
SOUND HOLIC feat. Nana Takahashi

EXTREME

Level: 10
BPM: 154-164
Notes: 968

BPM: 154
1
口口⑥口 |①-②-|
口口口④ |③-④-|
⑤口③口 |⑤---|
①②口口 |⑥---|
2
口口口口 |①---|
②口①口 |②-③-|
口③口口 |④---|
④口口口 |----|
3
口口口口 |①-②-|
④口口① |③---|
口⑤②口 |④-⑤-|
口⑥③口 |⑥---|
4
口口口口 |①---|
口口②口 |②-③-|
口口③口 |④---|
口④口① |----|
5
口口⑥口 |①-②-|
⑤口口④ |③-④-|
口②③口 |⑤---|
①口口口 |⑥---|
6
口口口口 |①---|
②口①口 |②-③-|
口③口口 |④---|
口口④口 |----|
7
口④⑧口 |①-②-|
口③⑦口 |③-④-|
②口⑥口 |⑤-⑥-|
①口口⑤ |⑦-⑧-|
8
口口口口 |----|
①口口① |----|
②口口② |①---|
口③③口 |②-③-|

BPM: 164
9
口口口口 |①---|
③①①③ |--②-|
口口口口 |----|
②口口② |③---|
10
②口口② |①-②-|
⑥③③⑥ |--③-|
⑤①①⑤ |④--⑤|
④口口④ |--⑥-|
11
口②②口 |①---|
口口口口 |--②-|
口①①口 |----|
③口口③ |③---|
12
④口口③ |①-②-|
⑥②②⑤ |----|
⑧口口⑦ |③④⑤⑥|
⑩①①⑨ |⑦⑧⑨⑩|
13
口口口口 |①---|
口①①口 |--②-|
③口口③ |----|
口②②口 |③---|
14
口口口口 |①-②-|
⑥①①⑥ |--③-|
⑤③③⑤ |④--⑤|
④②②④ |--⑥-|
15
口口口口 |①---|
口②②口 |--②-|
③口口③ |----|
口①①口 |③---|
16
①①①① |①---|
口口口口 |----|
口口口口
口口口口

⑥口⑧口
口③⑤口
口⑦口口 |②③④⑤|
②④口口 |⑥⑦⑧-|
17
口⑤口③ |①-②③|
⑦口口口 |④⑤⑥⑦|
①口口口
⑥口④②

口口口口
口⑩⑨⑧
⑪⑫⑬⑭ |-⑧⑨⑩|
口口口口 |⑪⑫⑬⑭|
18
④⑤⑥口 |①②③④|
口口⑧⑦ |⑤⑥⑦⑧|
口口口口
口③②①

口口口口
口⑨口口
⑩⑪⑫口 |⑨⑩⑪⑫|
口⑮⑭⑬ |⑬⑭⑮-|
19
②①口口 |①-②③|
⑦⑥⑤④ |④⑤⑥⑦|
⑪⑩⑨⑧ |-⑧⑨⑩|
③⑭⑬⑫ |⑪⑫⑬⑭|
20
口④③② |①②③④|
⑤⑥⑦口 |⑤⑥⑦⑧|
口口口⑧
①口口口

口口口口
口口口口
⑪⑩⑨口 |⑨⑩⑪⑫|
⑮⑭⑬⑫ |⑬⑭⑮-|
21
口口口① |①-②③|
②③④⑤ |④⑤⑥⑦|
口⑦⑥口
口口口口

口⑭⑬⑫
口口口口
口口口口 |-⑧⑨⑩|
⑪⑩⑨⑧ |⑪⑫⑬⑭|
22
口口口口 |①②③④|
①②③口 |⑤⑥⑦⑧|
口⑥⑤④
口口⑧⑦

⑬⑫⑪⑩
⑮⑭口口
口口口口 |⑨⑩⑪⑫|
口⑨口口 |⑬⑭⑮-|
23
口口口口 |①-②③|
口口⑦⑥ |④⑤⑥⑦|
口口①口
⑤④③②

⑪⑩⑨⑧
口口口口
口⑭⑬⑫ |-⑧⑨⑩|
口口口口 |⑪⑫⑬⑭|
24
口口口⑧ |①②③④|
⑤⑥⑦口 |⑤⑥⑦⑧|
①口口口
口④③②

口⑩⑨口
口口口口
⑭⑬⑫⑪ |⑨⑩⑪⑫|
口口⑯⑮ |⑬⑭⑮⑯|
25
口口口口 |①---|
口②②口 |----|
口口口口 |②---|
口①口口 |----|
26
⑦口⑦口 |①-②-|
⑥⑧⑥⑧ |③-④-|
④⑤④③ |⑤-⑥-|
口②口① |⑦-⑧-|
27
⑥口⑥口 |①-②-|
④⑦④⑦ |③-④-|
⑧⑤⑧③ |⑤-⑥-|
口①②① |⑦-⑧-|
28
④口④口 |①-②-|
口口口口 |③-④-|
口口口③
口①②①

口口口口
⑧⑤⑧口
⑥口⑥口 |⑤-⑥-|
口⑦口⑦ |⑦-⑧-|
29
④①④① |①--②|
⑥⑤⑥⑤ |--③-|
口③口③ |④--⑤|
②口②口 |--⑥-|
30
口④⑤④ |①-②-|
⑧⑥⑧⑥ |③-④-|
③⑦口⑦ |⑤-⑥-|
①②①口 |⑦-⑧-|
31
口⑥⑤⑥ |①-②-|
⑦④⑦④ |③-④-|
③⑧口⑧ |⑤-⑥-|
①②①口 |⑦-⑧-|
32
口⑥口⑥ |①-②-|
⑦③⑦⑤ |③-④-|
口⑧口⑧ |⑤-⑥-|
①②①④ |⑦-⑧-|
33
①⑬⑧⑦ |①②③④|
⑨②⑭⑪ |⑤⑥⑦⑧|
⑩⑮③⑫ |⑨⑩⑪⑫|
⑤⑥⑯④ |⑬⑭⑮⑯|
34
②口②口 |①---|
口口口口 |②-③-|
口口口口
①③口③

口④口④
口口口口
⑤⑦⑤⑦ |④-⑤-|
⑥口⑥口 |⑥-⑦-|
35
①③①③ |①-②-|
⑤口口④ |③---|
口⑥口口 |④---|
口②口② |⑤-⑥-|
36
口③口口 |①---|
口口口③ |②-③-|
②口①口
口口②口

口口⑤口
⑤口口口
口⑥⑦④ |④-⑤-|
⑦④口⑥ |⑥-⑦-|
37
①口口① |①-②-|
④②②④ |③-④-|
⑤口⑤口 |----|
口③③口 |--⑤-|
38
④口④口 |①-②-|
②③②口 |③-④-|
口①口口
口口口口

口口口口
口口口口
口⑦口⑦ |--⑤-|
口⑤⑥⑤ |⑥-⑦-|
39
⑤口⑤口 |--①-|
①②①口 |②-③-|
③⑥③⑥ |--④-|
口④口④ |⑤-⑥-|
40
⑮⑦⑯⑧ |①②③④|
⑬⑤⑭⑥ |⑤⑥⑦⑧|
③⑪④⑫ |⑨⑩⑪⑫|
①⑨②⑩ |⑬⑭⑮⑯|
41
⑥②口② |①--②|
⑤①⑦③ |--③-|
④③②口 |④-⑤-|
①⑧①③ |⑥-⑦⑧|
42
口③②① |--①②|
⑧口口⑦ |③-④-|
口④④⑥ |⑤-⑥-|
口⑨口⑤ |⑦-⑧⑨|
43
口①②③ |--①②|
口④④口 |③-④-|
口口口口
口口口口

口⑧口口
⑦口口⑨
⑥口口口 |⑤-⑥-|
⑤口口口 |⑦-⑧⑨|
44
口口口口 |--①②|
口口口口 |③-④-|
口④④口
口③②①

⑤⑦⑦⑤
口⑥⑥口
⑧口口⑧ |⑤-⑥-|
⑨口口⑨ |⑦-⑧⑨|
45
⑤口⑪⑥ |①②③④|
②⑬⑦③ |⑤⑥⑦⑧|
口④⑧⑩ |⑨-⑩-|
⑫①⑨口 |⑪-⑫⑬|
46
②③口① |--①-|
口⑦⑧① |②③④-|
④⑥口④ |⑤-⑥-|
口⑤口⑨ |⑦-⑧⑨|
47
口⑧③② |--①-|
④⑦口④ |②③④-|
①口⑥口 |⑤-⑥-|
①口⑤口 |⑦-⑧-|
48
①口口① |①-②-|
③口口③ |③-④-|
口口口口
②④④②

⑦⑥⑥⑦
口口口口
⑧⑤⑤⑧ |⑤-⑥-|
口口口口 |⑦-⑧-|
49
口⑤⑤口 |①②③④|
②口①口 |--⑤-|
口口口口
口④口③

口口口口
口⑥⑨⑥
口⑦⑦⑩ |⑥-⑦-|
⑧口⑧口 |⑧-⑨⑩|
50
⑤③③⑤ |----|
①口口① |①---|
口口口口 |②-③-|
②④④② |④-⑤-|
51
口口口口 |①②③④|
口①③口 |--⑤-|
②口口④
⑤口口口

口口口口
口⑧⑨口
口⑥⑦口 |⑥-⑦-|
口口口口 |⑧-⑨-|
52
①③③① |①-②-|
口口口口 |③-④-|
口口口口
④②②④

⑦口口⑦
口⑥⑥口
口⑤⑤口 |--⑤-|
口口口口 |⑥-⑦-|
53
口①①口 |①-②-|
④口口④ |③-④-|
③⑤⑤③ |--⑤-|
⑥②②⑥ |⑥---|
54
①口口① |①---|
口②②口 |②-③-|
口口口口
口③③口

⑦⑥⑥⑦
⑤口口⑤
④口口④ |④-⑤-|
口口口口 |⑥-⑦-|
55
口口口口 |①②③④|
口④③口 |--⑤-|
口②①口
口⑤⑤口

⑧⑦⑦⑧
口口口口
⑩⑨⑨⑩ |⑥-⑦-|
⑥口口⑥ |⑧-⑨⑩|
56
口⑥⑤口 |--①②|
口口口口 |③④⑤⑥|
口口口口
④②①③

⑩口口⑨
⑫⑧⑦⑪
口口口口 |⑦⑧⑨⑩|
口⑭⑬口 |⑪⑫⑬⑭|
57
⑩⑥⑤⑨ |①②③④|
⑫⑧⑦⑪ |⑤⑥⑦⑧|
④③②① |⑨⑩⑪⑫|
⑯⑮⑭⑬ |⑬⑭⑮⑯|
58
②口①口 |①---|
口口口口 |--②-|
口②口① |----|
口口口口
59
口口口口 |①---|
口①口② |--②-|
口口口口 |----|
①口②口
60
口②口① |①---|
口口口口 |--②-|
②口①口 |----|
口口口口
61
口口口口 |①---|
①口②口 |--②-|
口口口口 |----|
口①口②
62
④口①⑥ |①--②|
口口口口 |③-④-|
口④②① |⑤-⑥-|
口口③⑤
63
⑥口口口 |①--②|
②①口④ |③-④-|
③口口口 |⑤-⑥-|
①⑤④口
64
口④⑥① |①--②|
口②口口 |③-④-|
④③①口 |⑤-⑥-|
口口⑤口
65
口口口口 |①---|
①口②口 |--②-|
口口口口 |----|
口①口②
66
④口①口 |①-②-|
③口⑤口 |③-④-|
②④⑥① |⑤-⑥-|
口口口口
67
口口口口 |①-②-|
口①口④ |③-④-|
口⑤口② |⑤-⑥-|
①⑥④③
68
口④③① |①-②-|
口⑤②口 |③-④-|
④⑥①口 |⑤-⑥-|
口口口口
69
口口口口 |①-②-|
①口④口 |③-④-|
口口③口 |----|
口①②④
70
①口③口 |①-②③|
⑥⑤口⑦ |④-⑤-|
④①口⑧ |⑥⑦⑧-|
⑤口②口
71
口④③① |①-②③|
⑧口⑤口 |④-⑤-|
⑦口①口 |⑥⑦⑧-|
⑥②口⑤
72
⑤口⑦口 |①-②③|
口①口⑥ |④-⑤-|
口⑤口④ |⑥-⑦-|
口②③口
73
口②口① |①-②-|
④⑤③口 |③-④-|
⑥口①口 |⑤-⑥-|
⑤口口③
74
①⑧⑦③ |①-②-|
⑨口口⑥ |③④⑤⑥|
⑩①③⑤ |⑦⑧⑨⑩|
口②④口
75
口口口口 |①-②-|
口④口口 |③-④⑤|
口②③⑤
①口口口
76
口⑤②① |----|
口③口口 |--①-|
④口⑥口 |②-③-|
口口口口 |④-⑤⑥|
77
④口⑤口 |----|
⑥③②口 |--①-|
口口口① |②-③-|
口口口口 |④-⑤⑥|
78
口口口口 |----|
口口⑤④ |--①-|
口②③⑥ |②-③-|
①口口口 |④-⑤⑥|
79
④口口口 |----|
口③口口 |----|
⑤②口口 |①-②-|
口①口口 |③-④⑤|
80
⑤口口口 |----|
口⑥④口 |--①-|
口口口② |②-③-|
口口③① |④-⑤⑥|
81
口⑤口口 |----|
口④②口 |--①-|
口口口口 |②-③-|
口③①口 |④-⑤-|
82
①口口① |①-②-|
④口口④ |③-④-|
口③③口
②口口②

⑦⑥⑥⑦
口口口口
口口口口 |⑤-⑥-|
⑧⑤⑤⑧ |⑦-⑧-|
83
口⑦⑦口 |①②③④|
④⑤⑥口 |⑤⑥⑦-|
口③②①
口口口口

⑩口口⑩
口口口口
⑫⑪⑪⑫ |⑧-⑨-|
⑨⑧⑧⑨ |⑩-⑪⑫|
84
③①③① |----|
口口口口 |----|
口口口口 |①-②-|
④②④② |③-④-|
85
口口口口 |①②③④|
④③口口 |--⑤-|
⑤口②①
口口口口

口口口口
口口⑦⑧
口⑥⑨口 |⑥-⑦-|
口口口口 |⑧-⑨-|
86
②④③① |①-②-|
口口口口 |③-④-|
口口口口
①③④②

⑦口口口
口⑥⑤⑦
⑦⑤⑥口 |--⑤-|
口口口⑦ |⑥-⑦-|
87
口②③⑤ |--①-|
①④口口 |②-③-|
口口④① |--④-|
⑤③②口 |⑤---|
88
①口④⑤ |①---|
②口口口 |--②-|
口口口口 |③-④-|
口③⑥① |⑤-⑥-|
89
⑥⑥④④ |----|
口③③口 |--①-|
②②⑤⑤ |②-③-|
①①口口 |④-⑤⑥|
90
⑬⑭⑫⑩ |①②③④|
②⑪⑨① |⑤⑥⑦⑧|
⑦⑧⑮⑯ |⑨⑩⑪⑫|
③④⑤⑥ |⑬⑭⑮⑯|
91
口口口口 |①②③④|
口口⑦⑧ |⑤⑥⑦⑧|
⑤⑥口口
①②③④

口口⑪⑫
⑨⑩口口
口口⑭⑬ |⑨⑩⑪⑫|
⑯⑮口口 |⑬⑭⑮⑯|
92
⑧④⑬⑨ |①②③④|
⑩⑭③⑦ |⑤⑥⑦⑧|
⑥②⑮⑪ |⑨⑩⑪⑫|
⑫⑯①⑤ |⑬⑭⑮⑯|
93
④④口口 |①---|
口口③③ |②---|
②②口口 |③---|
口口①① |④---|
94
口口①口 |①---|
口①口口 |----|
口口①口
口①口口

口口口口
口口口口
口口口口 |----|
口②②口 |②---|
95
②口口② |①---|
口②②口 |----|
②①①② |②---|
口口口口 |----|

不確定度: 0

最終更新:2016年05月11日 19:00