ホメ猫☆センセーション
P*Light feat. mow*2

EXTREME

Level: 10
BPM: 200
Notes: 875

1
口口口口 |----|
口口口口 |----|
口口口口 |----|
口口口口 |----|
2
口口口口 |----|
口口口口 |----|
口口口口 |----|
口①①口 |①---|
3
①口口① |①---|
口口口口 |--②-|
口口口口 |----|
②③口② |--③-|
4
⑥口口口 |①-②-|
口②⑤⑦ |③-④-|
⑧①④口 |⑤-⑥-|
口口③口 |⑦-⑧-|
5
口口①① |①---|
口口②口 |--②-|
口③口口 |③---|
口口口口 |----|
6
口口口口 |----|
口口口口 |---①②③|
口⑤⑥⑦ |④-⑤-|
①②③④ |⑥-⑦-|
7
②①口口 |①---|
①口口口 |②-③-|
口口口口
③口口口

口⑤口口
⑤口口口
口口口口 |--④-|
口口④④ |--⑤-|
8
②口口口 |--①-|
口口口口 |②-③-|
④口①⑤ |--④-|
③⑥口口 |⑤-⑥-|
9
口③①口 |①-②-|
③口②① |--③-|
④口口口 |----|
口④口口 |④---|
10
口口口口 |①-②-|
口②②口 |--③-|
口口口①
口口①③

⑥⑥口⑤
⑥口口口
口口口⑦ |④-⑤-|
④口口口 |⑥-⑦-|
11
口口③口 |①-②-|
口②口③ |③-④-|
口④口口
④口①口

⑤⑥口口
⑥口口口
口口口口 |--⑤-|
口口⑦口 |⑥-⑦-|
12
⑤⑥③口 |①-②-|
⑥口口③ |③---|
口口①口 |④-⑤-|
口②口④ |⑥---|
13
⑤⑥③口 |①-②-|
⑥口⑦③ |③-④-|
口④口口 |--⑤-|
④②①口 |⑥-⑦-|
14
④⑤②口 |①---|
⑤③口口 |②---|
①②口② |③-④-|
③①③口 |⑤---|
15
口口③① |①-②-|
口口口③ |③-④-|
②口④口
口口口④

口⑥口⑦
⑥⑤口口
口口口口 |--⑤-|
口口口口 |⑥-⑦-|
16
⑥⑦③⑧ |①-②-|
⑦口⑧③ |③-④-|
①③⑤⑦ |⑤-⑥-|
②④⑥口 |⑦-⑧-|
17
口④②口 |①---|
④口口② |②---|
口口口口 |③---|
①③③① |④---|
18
⑦口口⑥ |①-②-|
口⑦⑥⑤ |③-④-|
⑦④②⑥ |⑤-⑥-|
③口口① |⑦---|
19
口①①口 |①---|
口口口口 |②-③-|
口口口口
口②③口

口口⑥⑥
口口口口
口④⑤口 |④-⑤-|
口口口口 |--⑥-|
20
口口口口 |--①-|
口④⑤③ |②-③-|
口口口② |--④-|
口口口① |⑤---|
21
①①①⑤ |①---|
口口口⑤ |②---|
⑤④③口 |③-④-|
⑤②②② |--⑤-|
22
①②③④ |①---|
口口口口 |②---|
口口口口 |③---|
口口口口 |④---|
23
⑥口口⑦ |①---|
②③⑤④ |②-③-|
④⑤③② |④-⑤-|
口①①口 |⑥-⑦-|
24
⑤口口⑤ |①---|
口口④口 |②---|
口③口口 |③-④-|
①①②② |--⑤-|
25
口口口口 |①---|
口口口口 |②---|
③口口④ |③---|
口①②口 |④---|
26
⑤①③⑥ |①-②-|
①③①③ |③-④-|
⑤②④⑥ |⑤-⑥-|
②④②④ |----|
27
⑥①②口 |①---|
①③口口 |②-③-|
口口④口 |④-⑤-|
口⑤口口 |--⑥-|
28
口口④④ |①-②-|
口口口口 |③-④-|
③⑤⑥口 |----|
口口②① |⑤-⑥-|
29
⑦口口口 |①-②-|
①③⑤口 |③-④-|
口口口口 |⑤-⑥-|
②④⑥⑦ |--⑦-|
30
口口口① |--①-|
口口口④ |②---|
口②③④ |③---|
①口口口 |④---|
31
⑤⑤口① |①---|
口③⑦口 |②-③-|
口口④口 |④-⑤-|
①②④⑥ |⑥-⑦-|
32
口口⑥① |①---|
口②口口 |②---|
口口④口 |③-④-|
①②③⑤ |⑤-⑥-|
33
口③口① |①---|
口口口口 |②---|
口口口口 |③---|
①②③④ |④---|
34
口口③③ |①---|
口口口② |--②-|
口口口① |----|
①口口口 |③---|
35
口②口口 |①---|
口口⑤口 |--②-|
口④口口 |③--④|
③①①口 |--⑤-|
36
①②④⑤ |--①-|
口口口口 |②---|
口口口口 |③-④-|
口口③口 |--⑤-|
37
⑧④口口 |①-②-|
口口③⑦ |③-④-|
②⑥口口 |⑤-⑥-|
口口⑤① |⑦-⑧-|
38
口口口① |①---|
②③③口 |②---|
口⑤④① |③---|
②⑦⑥口 |④⑤⑥⑦|
39
⑥②①⑥ |①-②-|
③④口① |③-④-|
口口口口 |⑤-⑥-|
⑤⑦⑦⑤ |--⑦-|
40
⑥⑥⑥⑥ |--①-|
口②⑤口 |②---|
口④口① |③-④-|
③口口口 |⑤-⑥-|
41
口口口口 |----|
口口口口 |①---|
口口口口 |②---|
口①②③ |③---|
42
④口口口 |①---|
口口口口 |②---|
①口口口 |③---|
①②③④ |④---|
43
口①①② |①---|
口口口③ |②---|
口口口③ |③---|
口口口④ |④---|
44
④口口口 |①---|
③口口口 |②---|
③口口口 |③---|
②①①口 |④---|
45
口口①口 |①---|
口口②口 |②---|
口②口口
口①口口

④口⑤③
口口口口
口口口口 |③-④-|
③⑤口④ |--⑤-|
46
⑥⑦⑦⑤ |①-②-|
④⑧⑧③ |③-④-|
②⑨⑨① |⑤-⑥-|
口⑩⑩口 |⑦⑧⑨⑩|
47
口口口口 |①---|
②口口③ |②-③-|
口口口③
①口口①

④口口口
口口口口
口⑤口口 |④---|
⑥口口⑥ |⑤-⑥-|
48
⑥②①⑥ |①-②-|
口口口口 |③-④-|
③⑧⑦③ |⑤-⑥-|
口④⑤口 |⑦-⑧-|
49
口①①④ |①---|
②④口口 |②-③-|
口口口口 |④---|
③③口⑤ |⑤---|
50
⑩⑭⑬⑨ |①②③④|
⑦⑧⑥⑤ |⑤⑥⑦⑧|
③④②① |⑨⑩⑪⑫|
⑫⑯⑮⑪ |⑬⑭⑮⑯|
51
口⑦⑦④ |①---|
③口⑤③ |②-③-|
①②口① |④-⑤-|
⑥口口口 |⑥-⑦-|
52
口口⑦口 |--①-|
②②口⑤ |②-③-|
口⑥口① |④-⑤-|
⑥③④口 |⑥-⑦-|
53
⑤③⑤② |①---|
③口②口 |②-③-|
①口口① |--④-|
口④口④ |--⑤-|
54
⑥⑥⑥⑥ |--①-|
口②口① |②---|
②口①口 |③④⑤-|
口⑤④③ |⑥---|
55
口口口口 |①---|
①口①口 |②-③-|
③口②口
③口口口

口口口口
⑥口口⑥
口口口口 |④---|
口口⑤④ |⑤-⑥-|
56
③口口③ |①-②-|
口口④口 |③-④-|
口①②口
口口口口

口口口口
口⑤口口
⑧⑧口口 |⑤-⑥-|
⑥⑥⑦⑦ |⑦-⑧-|
57
口①①④ |①---|
③③⑦② |②-③-|
口⑥⑦口 |④-⑤-|
⑤⑤口口 |⑥-⑦-|
58
口口口口 |①---|
④口口口 |②---|
⑤口口口 |③---|
④③②① |④-⑤-|
59
①口口⑥ |①---|
口③口口 |②-③-|
口②口口 |④---|
⑤④②① |⑤-⑥-|
60
①②口⑦ |①---|
口③口口 |②-③-|
⑥口口⑤ |④-⑤-|
⑥④②① |⑥-⑦-|
61
①②③⑤ |①---|
口口口口 |②-③-|
④口口④ |--④-|
⑤③②① |--⑤-|
62
⑧⑧⑧⑧ |①-②-|
⑨②①口 |③-④-|
⑩④③口 |⑤⑥⑦-|
口⑦⑥⑤ |⑧-⑨⑩|
63
口④④口 |①---|
口①①口 |②---|
口②②口 |③---|
口③③口 |④---|
64
⑨口口⑨ |①-②-|
③⑦⑥③ |③-④-|
⑧口②⑤ |⑤⑥⑦⑧|
①④口① |⑨---|
65
口⑥②⑦ |①---|
⑥口口② |②-③-|
口③口口 |④-⑤-|
①⑤④① |⑥-⑦-|
66
⑤⑥②口 |①---|
⑥口④② |②-③-|
口③口口 |④-⑤-|
①口⑦① |⑥-⑦-|
67
口⑥②⑦ |①---|
⑥口③② |②-③-|
口④⑤口 |④-⑤-|
①口口① |⑥-⑦-|
68
⑥⑦口口 |①-②-|
⑦②口口 |③-④-|
口口⑤⑧ |⑤-⑥-|
①④③① |⑦-⑧-|
69
口⑥②口 |①---|
⑥口⑦② |②-③-|
口口⑤口 |④-⑤-|
①④③① |⑥-⑦-|
70
⑤⑥②口 |①---|
⑥口⑦② |②-③-|
口③④口 |④-⑤-|
①口口① |⑥-⑦-|
71
口口②⑤ |①---|
④口⑤② |②-③-|
③口口④ |--④-|
①③口① |--⑤-|
72
⑤⑤⑤⑤ |①---|
口口口口 |----|
口①口口 |②③④-|
①④③② |⑤---|
73
口口口口 |①---|
口口口口 |--②-|
口②①口 |----|
③口口口 |--③-|
74
口⑥口口 |①-②-|
②口⑦⑤ |③-④-|
①⑧口④ |⑤-⑥-|
口口口③ |⑦-⑧-|
75
口口①① |①---|
口②口口 |--②-|
口口③口 |③---|
口口口口 |----|
76
口口口口 |----|
口口口口 |---①②③|
口⑤⑥⑦ |④-⑤-|
①②③④ |⑥-⑦-|
77
②①口口 |①---|
①口口口 |②-③-|
口口口口
③口口口

口⑤口口
⑤口口口
口口口口 |--④-|
口口④④ |--⑤-|
78
②口口口 |--①-|
口口口口 |②-③-|
④口①⑤ |--④-|
③⑥口口 |⑤-⑥-|
79
⑤①①⑤ |①---|
口③③② |②-③-|
口④④口 |--④-|
口口口口 |--⑤-|
80
⑥⑥⑥⑥ |--①-|
②口口① |②---|
②口口① |③④⑤-|
口⑤④③ |⑥---|
81
⑥口口⑥ |①---|
口①①口 |②-③-|
③③口② |④---|
④口口⑤ |⑤-⑥-|
82
⑧口口⑦ |①-②-|
⑤②①④ |③-④-|
③口口③ |⑤-⑥-|
口⑥⑥口 |⑦-⑧-|
83
口①①⑦ |①---|
口④②口 |②-③-|
口③⑥口 |④-⑤-|
口⑤⑤口 |⑥-⑦-|
84
①⑩⑥口 |①---|
⑤⑪⑦④ |②③④⑤|
③⑫⑧② |⑥⑦⑧⑨|
口⑬⑨口 |⑩⑪⑫⑬|
85
口口口口 |①---|
口口口② |②-③-|
③口口口
①口口口

⑦⑥⑤④
口口口口
口口口口 |④⑤⑥⑦|
⑪⑩⑨⑧ |⑧⑨⑩⑪|
86
口⑨⑧③ |①---|
⑦⑪⑩⑥ |②-③-|
⑤②①④ |④⑤⑥⑦|
口口口口 |⑧⑨⑩⑪|
87
④口口③ |①-②-|
口口口口 |③-④-|
口②口口
③④口①

口口⑥口
⑦口⑧⑤
口口⑥口 |⑤-⑥-|
口口口⑧ |⑦-⑧-|
88
③①口口 |①-②-|
口②口④ |③-④-|
口口口口
③④①口

口⑧⑥⑤
口口口口
⑥口口口 |⑤-⑥-|
口口口⑦ |⑦-⑧-|
89
④口口④ |①-②-|
①②②口 |③-④-|
口③③口
口口口口

口⑦⑦口
⑧口口⑧
⑤口口⑤ |⑤-⑥-|
口⑥⑥口 |⑦-⑧-|
90
⑦⑦⑦⑦ |--①-|
口①口口 |②-③-|
口③②口 |④⑤⑥-|
口⑥⑤④ |⑦---|
91
口口⑦⑦ |①-②-|
②④口③ |③-④-|
①⑥③① |⑤-⑥-|
口⑧⑤口 |⑦-⑧-|
92
③③口口 |①-②-|
⑥⑤口口 |③---|
①⑥④① |④-⑤-|
口口口② |⑥---|
93
④⑦③⑧ |①-②-|
⑦口口③ |③-④-|
口口⑥口 |⑤-⑥-|
①②⑤① |⑦-⑧-|
94
④⑤②口 |①---|
⑤③口口 |②---|
①②口② |③-④-|
③①③口 |⑤---|
95
口⑦口② |①-②-|
⑦④③① |③-④-|
①③⑤⑧ |⑤-⑥-|
口口⑥口 |⑦-⑧-|
96
⑥⑦③⑧ |①-②-|
⑦口⑧③ |③-④-|
①③⑤⑦ |⑤-⑥-|
②④⑥口 |⑦-⑧-|
97
口④②口 |①---|
④口口② |②---|
口口口口 |③---|
①③③① |④---|
98
⑦口②① |--①-|
口④③② |②-③-|
⑥⑤④口 |④-⑤-|
口⑥口⑦ |⑥-⑦-|

不確定度: 0

最終更新:2016年04月18日 00:42