I miss you baby / Wizard
加藤浩義

BASIC

Level: 3
BPM: 135-145
Notes: 224

BPM: 135
1
口口口口 |----|
口口口口 |----|
口口口口 |----|
口口口口 |----|
2
口口口口 |①---|
口口②口 |----|
口①口口 |②---|
口口口口 |----|
3
口口口口 |----|
口口口口 |----|
口口口口 |----|
口口口口 |----|
4
口口口口 |①---|
口口口口 |----|
口口①口 |----|
口口口口 |----|
5
口口口口 |①---|
口①口口 |----|
口口口口 |----|
口口口口 |----|
6
口口口口 |①---|
口口口口 |----|
①②口口 |②---|
口口口口 |----|
7
口口口口 |①---|
口口口口 |----|
口口①② |②---|
口口口口 |----|
8
口口口口 |①---|
口口②① |----|
口口口口 |②---|
口口口口 |----|
9
口口口口 |①---|
②①口口 |----|
口口口口 |②---|
口口口口 |----|
10
口口口口 |①---|
口口①口 |----|
口口②口 |②---|
口口口口 |----|
11
口口口口 |①---|
口①口口 |----|
口②口口 |②---|
口口口口 |----|
12
口口口口 |①---|
口口①口 |----|
口口②口 |②---|
口口口口 |----|
13
口口口口 |①---|
口口口口 |----|
口口口口 |②---|
口口①② |----|
14
口口口口 |①---|
口①口口 |----|
口②口口 |②---|
口口口口 |----|
15
口口口口 |①---|
口口①口 |----|
口口②口 |②---|
口口口口 |----|
16
口口口口 |①---|
口①口口 |----|
口②口口 |②---|
口口口口 |----|
17
口口口口 |①---|
口口口口 |----|
口口口口 |②---|
②①口口 |----|
18
口口口口 |①---|
口②口口 |----|
口①口口 |②---|
口口口口 |----|
19
口口口口 |①---|
口口②口 |----|
口口①口 |②---|
口口口口 |----|
20
口口口口 |①---|
口②口口 |----|
①口口口 |②---|
口口口口 |----|
21
口口口口 |①---|
口口②口 |----|
口口口① |②---|
口口口口 |----|
22
口③④口 |①---|
②口口口 |②---|
①口口口 |③---|
口口口口 |④---|
23
口口口口 |①---|
口口口① |②---|
口口口② |③---|
口④③口 |④---|
24
口口口口 |①---|
②①③④ |②---|
口口口口 |③---|
口口口口 |④---|
25
口口口口 |①---|
口口口口 |②---|
②①③④ |③---|
口口口口 |④---|
26
口口口口 |①---|
②①③④ |②---|
口口口口 |③---|
口口口口 |④---|
27
口口口口 |①---|
口口口口 |②---|
②①③④ |③---|
口口口口 |④---|
28
④③口口 |①---|
②口口口 |②---|
口①口口 |③---|
口口口口 |④---|
29
口口③④ |①---|
口口口② |②---|
口口①口 |③---|
口口口口 |④---|
30
④③口口 |①---|
②口口口 |②---|
口①口口 |③---|
口口口口 |④---|
31
口口③④ |①---|
口口口② |②---|
口口①口 |③---|
口口口口 |④---|

BPM: 69.73
32
口口口口 |①---|
口口口口
口口口口
①①口口

BPM: 81.91
口口口口
口口口口 |②---|
口口②②
口口口口

BPM: 52.29
口口口口
③③口口
口口口口 |③---|
口口口口 |----|

BPM: 145
33
口①①口 |①---|
口②②口 |----|
口口口口 |②---|
口口口口 |----|
34
口口口口 |①---|
口口口口 |----|
口①①口 |②---|
口②②口 |----|
35
口①①口 |①---|
口②②口 |----|
口口口口 |②---|
口口口口 |----|
36
口口口口 |①---|
口口口口 |----|
口①①口 |②---|
口②②口 |----|
37
口口口口 |①---|
口口口口 |----|
②口口② |②---|
①口口① |----|
38
②口口② |①---|
①口口① |----|
口口口口 |②---|
口口口口 |----|
39
口口口口 |①---|
口口口口 |----|
②口口② |②---|
①口口① |----|
40
②口口② |①---|
①口口① |----|
口口口口 |②---|
口口口口 |----|
41
口口口口 |①---|
口口口口 |----|
口口口口 |②---|
②①①② |----|
42
口口口口 |①---|
口口口口 |----|
②①①② |②---|
口口口口 |----|
43
口口口口 |①---|
②①①② |----|
口口口口 |②---|
口口口口 |----|
44
②①①② |①---|
口口口口 |----|
口口口口 |②---|
口口口口 |----|
45
口口口口 |①---|
口①③口 |②---|
口②④口 |③---|
口口口口 |④---|
46
口口口口 |①---|
①口口③ |②---|
②口口④ |③---|
口口口口 |④---|
47
口口口口 |①---|
口①③口 |②---|
口②④口 |③---|
口口口口 |④---|
48
口口口口 |①---|
①口口③ |②---|
②口口④ |③---|
口口口口 |④---|
49
口口口口 |①---|
口③①口 |②---|
口④②口 |③---|
口口口口 |④---|
50
口口口口 |①---|
③口口① |②---|
④口口② |③---|
口口口口 |④---|
51
口口口口 |①---|
口③①口 |②---|
口④②口 |③---|
口口口口 |④---|
52
口口口口 |①---|
③口口① |②---|
④口口② |③---|
口口口口 |④---|
53
口口②口 |①---|
口①口口 |----|
口口口口 |②---|
口口口口 |----|
54
口口口口 |①---|
口口口① |----|
口口②口 |②---|
口口口口 |----|
55
口口②口 |①---|
口①口口 |----|
口口口口 |②---|
口口口口 |----|
56
口口口口 |①---|
口口口① |----|
口口②口 |②---|
口口口口 |----|
57
口②口口 |①---|
口口①口 |----|
口口口口 |②---|
口口口口 |----|
58
口口口口 |①---|
①口口口 |----|
口②口口 |②---|
口口口口 |----|
59
口②口口 |①---|
口口①口 |----|
口口口口 |②---|
口口口口 |----|
60
口口口口 |①---|
①口口口 |----|
口②口口 |②---|
口口口口 |----|
61
口口口口 |①---|
口①③口 |②---|
④④②② |③---|
口口口口 |④---|
62
口口④口 |①---|
口①口③ |②---|
口口②② |③---|
口口口口 |④---|
63
口口口口 |①---|
口③①口 |②---|
②②④④ |③---|
口口口口 |④---|
64
口④口口 |①---|
③口①口 |②---|
②②口口 |③---|
口口口口 |④---|
65
口口④口 |①---|
口①口③ |②---|
口口②② |③---|
口口口口 |④---|
66
口④口口 |①---|
③口①口 |②---|
②②口口 |③---|
口口口口 |④---|
67
口④②口 |①---|
③口口① |②---|
口口口口 |③---|
口口口口 |④---|
68
口⑥②口 |①---|
口口⑤① |②---|
口④口口 |③-④-|
口口③口 |⑤-⑥-|
69
口口口口 |①---|
①口口① |----|
①口口① |----|
口口口口 |----|

不確定度: 0

最終更新:2015年05月01日 22:17