I miss you baby / Wizard
加藤浩義

ADVANCED

Level: 7
BPM: 135-145
Notes: 487

BPM: 135
1
口口口口 |----|
口口口口 |----|
口口口口 |----|
口口口口 |----|
2
口⑤口口 |①-②-|
口口②口 |--③-|
口①口④ |④---|
口口③口 |⑤---|
3
口口口口 |----|
口口口口 |--①-|
口①口口 |----|
口口口口 |----|
4
口口口口 |①---|
口口口口 |----|
口口口口 |----|
口口①口 |----|
5
口口口口 |①---|
口口口口 |----|
口口口口 |----|
口①口口 |----|
6
口⑤口⑦ |--①-|
口②⑥口 |②-③-|
④口①口 |④-⑤-|
口③口口 |⑥-⑦-|
7
①口④口 |--①-|
口③口⑤ |②-③-|
②口⑥口 |④-⑤-|
口⑦口口 |⑥-⑦-|
8
口③口① |--①-|
④口口口 |②---|
口⑤口② |③-④-|
口口⑥口 |⑤-⑥-|
9
①口③口 |--①-|
口⑤口④ |②---|
②口口口 |③-④-|
口⑥口口 |⑤-⑥-|
10
①口口口 |--①-|
口口②口 |②-③-|
口②口口 |----|
口口口③ |----|
11
口口口① |--①-|
口②口口 |②-③-|
口口②口 |----|
③口口口 |----|
12
①口口口 |--①-|
口口②口 |②-③-|
口②口口 |----|
口④口③ |④---|
13
口口口口 |①---|
口口①口 |--②-|
②口口口 |--③-|
口口③口 |----|
14
口口口① |--①-|
口②口口 |②-③-|
口口②口 |----|
③口口口 |----|
15
①口口口 |--①-|
口口②口 |②-③-|
口②口口 |----|
口口口③ |----|
16
口口口① |--①-|
口②口口 |②-③-|
口口②口 |----|
③口④口 |④---|
17
口②口口 |①---|
②口口① |--②-|
口口口口 |----|
口口口口 |----|
18
口口口⑤ |①-②-|
口④口口 |--③-|
②口③口 |④---|
①口口口 |⑤---|
19
⑤口口口 |①-②-|
口口④口 |--③-|
口③口② |④---|
口口口① |⑤---|
20
口口口口 |①-②-|
口口口⑤ |--③-|
②⑥③口 |④-⑤-|
①口口④ |--⑥-|
21
口口口口 |①-②-|
口⑥⑧口 |③-④-|
②⑤⑦④ |⑤-⑥-|
①口口③ |⑦-⑧-|
22
④③②① |①-②-|
⑤口口口 |③-④-|
⑥口口口 |⑤-⑥-|
⑦⑧⑨⑩ |⑦⑧⑨⑩|
23
⑥⑤④③ |①②③④|
⑦口⑬② |⑤⑥⑦⑧|
⑧口⑫① |⑨⑩⑪⑫|
⑨⑩⑪口 |⑬---|
24
①③⑤⑦ |①-②-|
口口口口 |③-④-|
口口口口 |⑤-⑥-|
⑧⑥④② |⑦-⑧-|
25
口口口口 |①-②-|
①③⑤⑦ |③-④-|
⑧⑥④② |⑤-⑥-|
口口口口 |⑦-⑧-|
26
②口口⑦ |①-②-|
④口口⑤ |③-④-|
⑥口口③ |⑤-⑥-|
⑧口口① |⑦-⑧-|
27
口②⑦口 |①-②-|
口④⑤口 |③-④-|
口⑥③口 |⑤-⑥-|
口⑧①口 |⑦-⑧-|
28
①口口② |①-②-|
口③④口 |③-④-|
口⑥⑤口 |⑤-⑥-|
⑧口口⑦ |⑦-⑧-|
29
②口口① |①-②-|
口④③口 |③-④-|
口⑤⑥口 |⑤-⑥-|
⑦口口⑧ |⑦-⑧-|
30
①口口② |①-②-|
③口口④ |③-④-|
⑤口口⑥ |⑤-⑥-|
⑦口口⑧ |⑦-⑧-|
31
口①②口 |①-②-|
口③④口 |③-④-|
口⑤⑥口 |⑤-⑥-|
口⑦⑧口 |⑦-⑧-|

BPM: 69.73
32
①口口口 |①---|
口口口口
口口口口
口口口①

BPM: 81.91
口口口②
口口口口 |②---|
口口口口
②口口口

BPM: 52.29
口口口口
③口口③
③口口③ |③---|
口口口口 |----|

BPM: 145
33
口口口口 |①--②|
口口口口 |----|
②④④② |③--④|
①③③① |----|
34
口口口口 |①--②|
②④④② |----|
①③③① |③--④|
口口口口 |----|
35
口口口口 |①--②|
口口口口 |----|
②④④② |③--④|
①③③① |----|
36
口口口口 |①--②|
②④④② |----|
①③③① |③--④|
口口口口 |----|
37
口口口口 |①--②|
②④④② |----|
口口口口 |③--④|
①③③① |----|
38
②④④② |①--②|
口口口口 |----|
①③③① |③--④|
口口口口 |----|
39
口口口口 |①--②|
②④④② |----|
口口口口 |③--④|
①③③① |----|
40
②④④② |①--②|
口口口口 |----|
①③③① |③--④|
口口口口 |----|
41
口口口口 |①--②|
④②②④ |----|
口口口口 |③--④|
①③③① |----|
42
②④④② |①--②|
口口口口 |----|
③①①③ |③--④|
口口口口 |----|
43
口口口口 |①--②|
④②②④ |----|
口口口口 |③--④|
①③③① |----|
44
②口口② |①--②|
口④④口 |----|
口①①口 |③--④|
口③③口 |----|
45
口④②口 |①--②|
②口口④ |----|
③口口① |③--④|
①口口③ |----|
46
口③①口 |①--②|
②口口④ |----|
③口口① |③--④|
口②④口 |----|
47
口②④口 |①--②|
②口口④ |----|
③口口① |③--④|
口①③口 |----|
48
口①③口 |①--②|
①口⑤③ |----|
④⑤口② |③--④|
口②④口 |--⑤-|
49
口④②口 |①--②|
②口口④ |----|
③口口① |③--④|
①口口③ |----|
50
口③①口 |①--②|
②口口④ |----|
③口口① |③--④|
口②④口 |----|
51
口②④口 |①--②|
②口口④ |----|
③口口① |③--④|
口①③口 |----|
52
口①③口 |①--②|
①⑤口③ |----|
④口⑤② |③--④|
口②④口 |--⑤-|
53
口口③口 |①-②-|
口口口口 |③--④|
④口口②
口①口口

口口口口
口口⑤口
口口口口 |--⑤-|
口⑥口口 |-⑥--|
54
口③口④ |①-②-|
口口口口 |③-④-|
口②口口
口口口①

口口口口
口⑤口口
口口口口 |⑤--⑥|
⑦口口⑥ |--⑦-|
55
口口④口 |①-②-|
②口口口 |③--④|
口口①口
口③口口

口口口口
⑥口口口
口口口口 |--⑤-|
口口⑤口 |-⑥--|
56
口④口③ |①-②-|
口口口口 |③-④-|
口②⑤① |⑤--⑥|
⑥口口⑦ |--⑦-|
57
口口③口 |①-②-|
口口口口 |③--④|
④口口②
口①口口

口口口口
口口⑤口
口口口口 |--⑤-|
口⑥口口 |-⑥--|
58
口③口④ |①-②-|
口口口口 |③-④-|
口②口口
口口口①

口口口口
口⑤口口
口口口口 |⑤--⑥|
⑦口口⑥ |--⑦-|
59
口口④口 |①-②-|
②口口口 |③--④|
口口①口
口③口口

口口口口
⑥口口口
口口口口 |--⑤-|
口口⑤口 |-⑥--|
60
口④口③ |①-②-|
口口口口 |③-④-|
口②⑤① |⑤--⑥|
⑥口口⑦ |--⑦-|
61
口口口口 |①--②|
③①①③ |----|
④②②④ |③--④|
口口口口 |----|
62
⑤口口⑤ |①--②|
④①①④ |----|
③②②③ |③--④|
口口口口 |--⑤-|
63
口口口口 |①--②|
③①①③ |----|
④②②④ |③--④|
口口口口 |----|
64
⑤口口⑤ |①--②|
④①①④ |----|
③②②③ |③--④|
口口口口 |--⑤-|
65
口口口口 |①--②|
⑤①①⑤ |----|
④②②④ |③--④|
③口口③ |--⑤-|
66
口口口口 |①--②|
⑤①①⑤ |----|
④②②④ |③--④|
③口口③ |--⑤-|
67
⑥③③⑥ |①--②|
⑤②②⑤ |--③-|
④①①④ |④--⑤|
口口口口 |--⑥-|
68
⑦③③⑦ |①--②|
⑥②②⑥ |--③-|
⑤①①⑤ |④-⑤-|
④口口④ |⑥-⑦-|
69
口口口口 |①---|
口①①口 |----|
口①①口 |----|
口口口口 |----|

不確定度: 0

最終更新:2015年05月01日 22:17