Too Late Snow
movies (moimoi × Xceon × Dai.)

ADVANCED

Level: 6
BPM: 138
Notes: 433

1
口口口口 |----|
口口口口 |----|
口②口口 |----|
口口①口 |①-②-|
2
②口口口 |①---|
口口①口 |--②-|
口口口③ |③---|
④口口口 |④---|
3
口口①口 |①-②-|
口②口口 |③-④-|
⑦口③口 |⑤---|
口④⑤⑥ |⑥-⑦-|
4
口口口口 |①---|
口②口① |--②-|
口口③口 |③---|
④口口④ |④---|
5
①口①口 |①---|
口②口② |②---|
③⑤③口 |③---|
口口④口 |④-⑤-|
6
②口口口 |①---|
④口①④ |--②-|
口口口③ |③---|
口口口口 |④---|
7
口口①口 |①-②-|
口②口口 |③-④-|
口口③⑦ |⑤---|
⑥④⑤口 |⑥-⑦-|
8
口口口口 |①---|
①③②口 |--②-|
口口口口 |③---|
④口口④ |④---|
9
③口口③ |①---|
口④④口 |②---|
②④④② |③---|
口①①口 |④---|
10
口①②口 |①-②-|
③口口④ |③-④-|
⑤口口⑥ |⑤-⑥-|
⑦口口口 |⑦---|
11
①口口② |①-②-|
口③④口 |③-④-|
口⑤⑥口 |⑤-⑥-|
口⑦口口 |⑦---|
12
口①②口 |①-②-|
③口口④ |③-④-|
⑤口口⑥ |⑤-⑥-|
⑦口口口 |⑦---|
13
①口口② |①-②-|
口③④口 |③-④-|
口⑤⑥⑧ |⑤-⑥-|
口⑦口口 |⑦-⑧-|
14
①口④口 |①---|
口口②口 |②-③-|
口③口口 |④---|
⑤口口口 |⑤---|
15
口①口口 |①-②-|
口口②口 |③-④-|
口③口⑦ |⑤---|
⑥⑤④口 |⑥-⑦-|
16
口③口口 |①---|
①口④口 |②-③-|
⑤口②口 |④---|
口口口口 |⑤---|
17
①口口① |①---|
②口口② |②---|
口③③⑤ |③---|
④口口口 |④-⑤-|
18
口口口口 |①---|
③①口④ |②-③-|
口口口口 |④---|
口⑤②口 |⑤---|
19
口①口口 |①-②-|
口口②口 |③-④-|
⑦③口口 |⑤---|
口⑤④⑥ |⑥-⑦-|
20
③③①① |①---|
口口口口 |--②-|
口口②口 |③---|
口④④口 |④---|
21
③口口③ |①---|
口口口口 |②---|
②口口② |③---|
①口口① |----|
22
口口口口 |①-②-|
⑤⑥⑦⑧ |③-④-|
口口口口 |⑤-⑥-|
①②③④ |⑦-⑧-|
23
口③②口 |----|
口口口口 |①---|
口①口口 |②---|
口口口口 |③---|
24
口口口口 |①---|
②口口③ |--②-|
口⑥①口 |③-④-|
④口口⑤ |⑤-⑥-|
25
口②口④ |①---|
口口③口 |--②-|
口口①口 |③---|
口口口口 |④---|
26
口口口口 |①---|
口口口口 |----|
口口口口 |----|
口口①口 |----|
27
口口③口 |①---|
②④口口 |②---|
口①①口 |③---|
口口口口 |④---|
28
④口口③ |①---|
⑥口口⑤ |--②-|
口②口口 |③-④-|
口口①口 |⑤-⑥-|
29
口口口③ |①---|
④②口口 |--②-|
口口①⑤ |③-④-|
⑥口口口 |⑤-⑥-|
30
口口口口 |①---|
口口口口 |----|
口口口口 |----|
口口①口 |----|
31
口①口① |①---|
口⑤②⑤ |--②-|
④口④口 |③--④|
口③口③ |--⑤-|
32
①②①口 |①---|
⑤口⑤口 |--②-|
口④口④ |③--④|
③口③口 |--⑤-|
33
口①口① |①---|
口口口口 |--②-|
②②口口
口口口口

口口⑤⑤
口④④口
口口口口 |③--④|
口口③③ |--⑤-|
34
口口口口 |①---|
口口口口 |----|
口口口口 |----|
①①口口 |----|
35
口①口① |①---|
口⑤②⑤ |--②-|
④口④口 |③--④|
口③口③ |--⑤-|
36
①②①口 |①---|
⑤口⑤口 |--②-|
口④口④ |③--④|
③口③口 |--⑤-|
37
⑥①⑥① |①--②|
口③口③ |--③-|
②口②口 |④--⑤|
④⑤④⑤ |--⑥-|
38
口口口口 |①---|
口①口① |----|
口口口口 |----|
口口口口 |----|
39
①①①① |①---|
口口口口 |----|
②④口② |②---|
②口③② |③-④-|
40
③口口口 |①---|
口口①口 |②-③-|
口口口④ |④---|
⑤口口② |⑤---|
41
口口①口 |①-②-|
口②口口 |③-④-|
⑦口③口 |⑤---|
口④⑤⑥ |⑥-⑦-|
42
口口口口 |①---|
口③口① |②-③-|
口口④口 |④---|
⑤口②⑤ |⑤---|
43
①口①口 |①---|
口②口② |②---|
③⑤③口 |③---|
口口④口 |④-⑤-|
44
③口口口 |①---|
⑤口①⑤ |②-③-|
口口②④ |④---|
口口口口 |⑤---|
45
口口①口 |①-②-|
口②口口 |③-④-|
口口③⑦ |⑤---|
⑥④⑤口 |⑥-⑦-|
46
①①③③ |①---|
口口口口 |--②-|
口②口口 |③---|
④口口④ |④---|
47
③口口③ |①---|
口口口口 |②---|
②口口② |③---|
口①①口 |----|
48
口①口口 |①-②-|
口⑦④口 |③-④-|
口③⑥口 |--⑤-|
口⑤②口 |⑥-⑦-|
49
口口口口 |--①-|
⑥口口③ |②-③-|
②口口⑤ |--④-|
④口口① |⑤-⑥-|
50
口口①口 |①-②-|
口④⑦口 |③-④-|
口⑥③口 |--⑤-|
口②⑤口 |⑥-⑦-|
51
口口口口 |--①-|
③口口⑥ |②-③-|
⑤口口② |--④-|
①口口④ |⑤-⑥-|
52
口②口口 |①---|
口口口口 |----|
口①①口 |----|
口口口口 |②---|
53
口口口口 |①---|
口口①口 |----|
口口口口 |②---|
②口口口 |----|
54
口口口口 |①---|
③口口口 |②---|
口口口② |③---|
口口①口 |----|
55
口口口口 |①---|
口口①口 |----|
口②口口 |②---|
口口口口 |----|
56
口③口口 |①---|
口口④口 |②---|
②⑤口口 |③---|
①口口口 |④-⑤-|
57
口口③口 |①---|
口口口口 |②-③-|
④口口⑤ |④---|
②口①口 |⑤---|
58
口①口口 |①-②-|
口口②口 |③-④-|
⑦③口口 |⑤---|
口⑤④⑥ |⑥-⑦-|
59
口口③口 |①---|
口④口① |②-③-|
⑤口口⑤ |④---|
口②口口 |⑤---|
60
①口口① |①---|
口③口口 |②---|
口口③口 |③---|
口②②口 |----|
61
①②③④ |①-②-|
口口口口 |③-④-|
口口口口 |⑤-⑥-|
⑤⑥⑦⑧ |⑦-⑧-|
62
口口口口 |①---|
①口口① |---②|
①口口①
口②②口
63
②口口口 |----|
口①①口 |①-②-|
口①①③ |③---|
④口口口 |④---|
64
口口①口 |①-②-|
口②口口 |③-④-|
⑦口③口 |⑤---|
口④⑤⑥ |⑥-⑦-|
65
口口口口 |①---|
口③口① |②-③-|
口口④口 |④---|
⑤口②⑤ |⑤---|
66
①口①口 |①---|
口②口② |②---|
③⑤③口 |③---|
口口④口 |④-⑤-|
67
③口口口 |①---|
⑤口①⑤ |②-③-|
口口②④ |④---|
口口口口 |⑤---|
68
口口①口 |①-②-|
口②口口 |③-④-|
口口③⑦ |⑤---|
⑥④⑤口 |⑥-⑦-|
69
①①③③ |①---|
口口口口 |--②-|
口②口口 |③---|
④口口④ |④---|
70
③口口③ |①---|
口口口口 |②---|
②口口② |③---|
口①①口 |----|
71
口口口口 |①---|
口①①口 |----|
口①①口 |----|
口口口口 |----|

不確定度: 0

最終更新:2015年05月24日 19:14