Ausretious#1-まどろみ、或いは嘆色の夢-
EOOZ

ADVANCED

Level: 7
BPM: 168
Notes: 569

1
口口口口 |--①-|
③口口② |--②-|
⑤①①④ |③---|
口口口口 |④-⑤-|
2
口口③口 |----|
口口②口 |①---|
口口①口 |②---|
口口口口 |③---|
3
口①口口 |①---|
口②口口 |②---|
口③口口 |③---|
口④口口 |④---|
4
口口④口 |①---|
口口③口 |②---|
口口②口 |③---|
口口①口 |④---|
5
口口口③ |①-②-|
口口口③ |--③-|
口②②口
①②②①

④口口口
④口口口
⑥口口⑤ |④---|
⑥口口⑤ |⑤-⑥-|
6
③②①④ |①-②-|
⑥⑤①④ |③-④-|
口⑧⑦口 |⑤-⑥-|
口⑧⑦口 |⑦-⑧-|
7
③②①④ |①-②-|
⑥⑤①④ |③-④-|
口⑧⑦口 |⑤-⑥-|
口⑧⑦口 |⑦-⑧-|
8
③②①④ |①-②-|
⑥⑤①④ |③-④-|
口⑧⑦口 |⑤-⑥-|
口⑧⑦口 |⑦-⑧-|
9
口口①③ |①-②-|
口口①③ |--③-|
口口口口
②口口②

④⑥⑤口
④⑥⑤口
口口口口 |④---|
口口口口 |⑤-⑥-|
10
口口口口 |--①-|
口口⑥① |②-③-|
口⑤②口 |--④-|
④③口口 |⑤-⑥-|
11
①口口口 |----|
口口口口 |----|
口口口口 |----|
口口口口 |--①-|
12
口①口口 |①---|
口口口口 |----|
口②②口 |②---|
口口口口 |----|
13
口口口口 |①-②-|
口口口口 |③-④-|
⑤⑥⑦⑧ |⑤-⑥-|
①②③④ |⑦-⑧-|
14
口口⑧① |①-②-|
口③②⑦ |③-④-|
④口⑥口 |⑤-⑥-|
口⑤口口 |⑦-⑧-|
15
④⑧口③ |①-②-|
口⑤②⑦ |③-④-|
口①⑥口 |⑤-⑥-|
口口口口 |⑦-⑧-|
16
口口⑧① |①-②-|
口口②⑦ |③-④-|
口③⑥口 |⑤-⑥-|
④⑤口口 |⑦-⑧-|
17
口口⑧⑥ |①-②-|
④口口口 |③-④-|
⑤③口口 |⑤-⑥-|
⑦口②① |⑦-⑧-|
18
口口口口 |----|
口口口口 |----|
口口口口 |----|
口口口口 |----|
19
口口口② |①---|
口①①口 |----|
口口口口 |②---|
②口口口
20
①口口口 |①---|
口口口口 |②---|
口口口口
口②②①
21
口①①口 |①---|
口口口② |----|
②口口口 |②---|
口口口口
22
口口口口 |①---|
①口口口 |----|
口口口①
口口口口
23
②②口口 |①---|
口口口口 |----|
口①①口 |②---|
口口口口
24
口口口口 |①---|
①②口口 |②---|
①口口口
②口口口
25
口口口口 |①---|
口口口口 |----|
口①口口 |----|
口①口口
26
口口口口 |----|
口口口口 |----|
口口口口
口口口口
27
①口口① |①---|
口口②口 |----|
口②口口 |②---|
口口口口
28
口口口口 |①---|
口①口口 |②---|
口口①口
②口口②
29
口①①口 |①---|
口口口② |----|
②口口口 |②---|
口口口口
30
口口口口 |①---|
①口口口 |----|
口口口①
口口口口
31
口口①① |----|
口口口口 |①---|
口口②口 |②---|
口口②口
32
口口口口 |①---|
口口②① |②---|
口口口①
口口口②
33
口口③② |①---|
口①③② |②---|
口口口口 |③---|
①口口口
34
②①口口 |①---|
②①口口 |②---|
口口口口
口口口口
35
口口①① |①---|
口③口③ |②---|
②口口口 |③---|
①口口口
36
口口口口 |①---|
口口口口 |②---|
口①①口
口②口②
37
口口①① |①---|
口③口③ |②---|
②口口口 |③---|
①口口口
38
口口口口 |①---|
口口口口 |②---|
口①①口
口②口口
39
口口口③ |①---|
口③口口 |②---|
②口口口 |③---|
①口①①
40
口口①口 |①---|
口口口② |②---|
口①口口
口②口口
41
口口口口 |①---|
口③①口 |②---|
②口口口 |③---|
①口口口
42
口口口口 |①---|
口口口口 |②---|
口①口口
口②口口
43
口口①① |①---|
口③口③ |②---|
②口口口 |③---|
①口口口
44
口口口口 |①---|
口口口口 |②---|
口①①口
口②口②
45
口口①① |①---|
口③口③ |②---|
②口口口 |③---|
①口口口
46
口口口口 |①---|
口口口口 |②---|
口①①口
口②口口
47
口口口② |①---|
口③③口 |②---|
②口口口 |③---|
①口口口
48
口口口口 |①---|
口口口口 |②---|
口①口①
口②②口
49
口口口口 |①---|
口③口口 |②---|
②口口口 |③---|
①口口①
50
口口口口 |①---|
口口口口 |②---|
口①口口 |③---|
③②口口
51
①①①① |①---|
口①①口 |----|
②口口② |②---|
口口口口
52
口口口口 |①---|
口口口口 |②---|
口②②口
口①①口
53
①口口① |①---|
口口口口 |----|
口口口口 |----|
口口口口
54
口①②口 |①---|
口①②口 |②---|
口口口口
口口口口
55
②口口② |①---|
口口口口 |②---|
口口口口 |③---|
①③③①
56
③口口口 |①---|
③②②口 |②---③-|
口①①口
口口口口
57
口②②① |①---|
口口口① |----|
口口口口 |②---|
口口口口
58
口口口口 |①---|
口②口口 |②---|
口②口口
①口口①
59
口口口口 |①---|
口口①口 |②---|
③口①③ |③---|
口②②口
60
②③口② |①---|
①③口① |②---③-|
口口口口
口口口口
61
口口①口 |①---|
口口①口 |----|
口口口口 |②---|
口②②口
62
口口口口 |①---|
①口口① |----|
口口口口
口口口口
63
②③口口 |①---|
口①①口 |----|
口①①口 |②---|
口口口口 |③---|
64
口口①口 |①---|
口口口口 |----|
口口口口 |----|
口口口口
65
口口口口 |①---|
口口口口 |----|
口①①口 |----|
口口口口
66
⑦口口⑧ |①-②-|
⑤口口⑥ |③-④-|
③口口④ |⑤-⑥-|
①①口② |⑦-⑧-|
67
口⑦⑧口 |①-②-|
口⑤⑥口 |③-④-|
口③④口 |⑤-⑥-|
口①②口 |⑦-⑧-|
68
口口口口 |①-②-|
口口口口 |③-④-|
③⑤⑥④ |⑤-⑥-|
①⑦⑧② |⑦-⑧-|
69
③⑤⑥④ |①-②-|
①⑦⑧② |③-④-|
口口口口 |⑤-⑥-|
口口口口 |⑦-⑧-|
70
口口口口 |①-②-|
口口口口 |----|
①口口② |----|
①口口②
71
①口③口 |①-②-|
口②口④ |③-④-|
口⑤⑥口 |⑤-⑥-|
口口口口
72
②口口② |①-②-|
口口口口 |----|
口口口口 |----|
①口口①
73
④口②口 |①-②-|
口③口① |③-④-|
⑧口⑥口 |⑤-⑥-|
口⑦口⑤ |⑦-⑧-|
74
口②口④ |①-②-|
①口③口 |③-④-|
口⑥口⑧ |⑤-⑥-|
⑤口⑦口 |⑦-⑧-|
75
口⑥口⑧ |①-②-|
口②口④ |③-④-|
①口③口 |⑤-⑥-|
⑤口⑦口 |⑦-⑧-|
76
口口口口 |①-②-|
①⑤③⑦ |③-④-|
口口口口 |⑤-⑥-|
⑧②⑥④ |⑦-⑧-|
77
①⑤③⑦ |①-②-|
口口口口 |③-④-|
⑧④②⑥ |⑤-⑥-|
口口口口 |⑦-⑧-|
78
口⑧⑦口 |①-②-|
口⑥⑤口 |③-④-|
口④③口 |⑤-⑥-|
口②①口 |⑦-⑧-|
79
⑧口口⑦ |①-②-|
⑥口口⑤ |③-④-|
④口口③ |⑤-⑥-|
②口口① |⑦-⑧-|
80
口④②口 |①---|
口⑤③口 |②-③-|
口口口口 |--④-|
⑥口①① |⑤-⑥-|
81
④⑥②口 |①-②-|
口口口口 |③-④-|
口口口口 |--⑤-|
⑤③⑦① |⑥-⑦-|
82
口⑤③口 |①---|
口口①① |②-③-|
②口口口 |--④-|
⑥口口④ |⑤-⑥-|
83
口口口① |①-②-|
口口②口 |③-④-|
口③口口
口口④口

⑥口口口
口⑧⑨口
口口口口 |⑤-⑥-|
口⑤口⑦ |⑦-⑧⑨|
84
口③口口 |①---|
口⑤口① |②-③-|
口口口口 |--④-|
②⑥④口 |⑤-⑥-|
85
④⑥口① |--①-|
口口②口 |②-③-|
口③⑤口 |--④-|
口口口口 |⑤-⑥-|
86
口口②① |①---|
口⑤口口 |②-③-|
口口口口 |--④-|
③口⑥④ |⑤-⑥-|
87
④③②① |①-②-|
⑧⑦⑥⑤ |③-④-|
口口口口 |⑤-⑥-|
口口口口 |⑦-⑧-|
88
②口口③ |①-②-|
口口口口 |③-④-|
④口口口
口口①①

口口口口
口⑥口口
口口口⑤ |⑤-⑥-|
⑧口⑦⑦ |⑦-⑧-|
89
④⑧①① |①-②-|
口口③③ |③-④-|
⑥②⑤⑤ |⑤-⑥-|
口口⑦⑦ |⑦-⑧-|
90
⑥口口口 |①-②-|
②口①① |③-④-|
口口⑤③ |⑤-⑥-|
⑧④口⑦ |⑦-⑧-|
91
④③②① |①-②-|
⑧⑦⑥⑤ |③-④-|
口口口口 |⑤-⑥-|
口口口口 |⑦-⑧-|
92
④口口③ |①-②-|
口⑧口⑦ |③-④-|
②口口⑤ |⑤-⑥-|
⑥口①① |⑦-⑧-|
93
④口口③ |①-②-|
口口⑦口 |③-④-|
②⑧口口 |⑤-⑥-|
⑥口①⑤ |⑦-⑧-|
94
⑤口口① |①-②-|
⑥口口② |③-④-|
⑦口口③ |⑤-⑥-|
⑧口口④ |⑦-⑧-|
95
口⑤①口 |①-②-|
口⑥②口 |③-④-|
口⑦③口 |⑤-⑥-|
口⑧④口 |⑦-⑧-|
96
④③②① |①---|
口口口口 |②---|
口口口口 |③---|
口口口口 |④---|
97
口口口口 |①---|
④③②① |②---|
口口口口 |③---|
口口口口 |④---|
98
口口口口 |①---|
口口口口 |②---|
④③②口 |③---|
口①①口 |④---|
99
口口口口 |①---|
口口口口 |②---|
口口口口 |③---|
④③②① |④---|
100
口口口口 |①---|
口口①口 |----|
口口口口 |----|
口口口口 |----|

不確定度: 0

最終更新:2015年11月02日 23:44