女言葉の消失
Sota Fujimori

EXTREME

Level: 9
BPM: 136
Notes: 844

1
口口口口 |----|
口口口口 |----|
口口口口 |----|
口口口口 |----|
2
口⑥⑥口 |①-②-|
④③口口 |③④-⑤|
口②口口 |----|
⑤①口口 |⑥---|
3
口口口口 |①-②③|
口口口④ |-④--|
口口①口
口口②③

⑨口口⑨
口⑤⑥口
口⑦⑧口 |⑤⑥⑦⑧|
口口口口 |⑨---|
4
口口口口 |①-②-|
①⑦⑦⑥ |③-④-|
⑤⑧⑧② |⑤-⑥-|
③口口④ |⑦-⑧-|
5
口②③④ |①-②③|
①口口⑤ |④-⑤-|
口口口口
口口口口

⑧口口⑨
口⑥⑦口
口⑧⑨口 |⑥-⑦-|
⑥口口⑦ |⑧-⑨-|
6
口①①口 |①-②-|
口口口口 |③---|
③口口②
口③②口

口口口口
口⑤⑤口
口⑤⑤⑥ |④---|
④口口④ |⑤-⑥-|
7
口②③④ |①-②③|
①口口⑤ |④-⑤-|
口口口口
口口口口

⑥口口口
⑧⑨口口
⑥⑩口口 |⑥-⑦-|
⑧口口⑦ |⑧-⑨⑩|
8
口口口口 |①-②-|
⑥⑦⑦① |③-④-|
②⑧⑧⑤ |⑤-⑥-|
④①口③ |⑦-⑧-|
9
④③②口 |①-②③|
⑤口口① |④-⑤-|
口口口口
口口口口

⑨口口⑧
口⑦⑥口
口⑨⑧口 |⑥-⑦-|
⑦口口⑥ |⑧-⑨-|
10
口①①口 |①-②-|
②口口④ |③-④-|
②口口④
口③③口

⑤口口⑤
口⑥⑥口
⑦⑥⑥口 |⑤---|
口口口口 |⑥-⑦-|
11
④③②口 |①-②③|
⑤口口① |④-⑤-|
口口口口
口口口口

口口口口
口⑥⑩⑨
口⑦⑪口 |⑥⑦⑧-|
口⑧口⑨ |⑨-⑩⑪|
12
③②④⑤ |①-②③|
①口口口 |-④⑤-|
口口口口
口口①口

口口口口
⑧口口⑥
口口口口 |⑥-⑦-|
⑧⑦⑦⑥ |⑧---|
13
口①②② |①---|
口口①② |②---|
口口②①
口口②②

④④口口
④④口口
③④口口 |③---|
④④口口 |④---|
14
口口②① |①-②-|
口口④③ |③-④-|
口口口口
口口口口

口口⑦⑦
⑤⑤口口
口口⑥⑥ |⑤---|
口口口口 |⑥-⑦-|
15
③⑧⑧⑥ |--①-|
⑦④④⑦ |②③-④|
口②⑤口 |-⑤⑥-|
口①①口 |⑦-⑧-|
16
口⑤⑥⑦ |--①-|
④口口③ |②-③-|
②口口① |④-⑤⑥|
口口口口 |⑦---|
17
口③③口 |①---|
②④④① |②--③|
②④④① |----|
②口口① |④---|
18
①②口口 |①-②-|
③④口口 |③-④-|
口口口口
口口口口

⑦⑦口口
口口⑤⑤
⑥⑥口口 |⑤---|
口口口口 |⑥-⑦-|
19
⑥⑧⑧③ |--①-|
⑦④④⑦ |②③-④|
口⑤②口 |-⑤⑥-|
口①①口 |⑦-⑧-|
20
⑦⑥⑤口 |--①-|
③口口④ |②-③-|
①口口② |④-⑤⑥|
口口口口 |⑦---|
21
口③③口 |①---|
①口口② |②--③|
①口口②
①口口②

口口口口
⑤⑥⑦口
口④口口 |----|
⑤⑥⑦口 |④--⑤⑥⑦|
22
口口③④ |①-②-|
口口口① |③-④-|
口口②口
口口口①

口⑤⑧口
⑤口口⑧
⑥口口⑦ |⑤-⑥-|
口⑥⑦口 |⑦-⑧-|
23
④口口⑤ |①--②|
④③③⑤ |--③-|
口②②口 |--④-|
①口口① |⑤---|
24
口口④口 |①-②-|
口③口口 |③-④-|
②①①口
口口口口

⑧口口⑤
口⑧⑤口
口⑦⑥口 |⑤-⑥-|
⑦口口⑥ |⑦-⑧-|
25
口①①口 |①--②|
②口口② |--③-|
③口口③
口口口口

⑤⑤⑤⑤
口④④口
口⑥口口 |--④-|
口⑥口口 |⑤--⑥|
26
口⑤⑤口 |①-②-|
④口口⑥ |③-④-|
③口①⑦ |⑤-⑥-|
②口①⑧ |⑦-⑧-|
27
③⑤⑥⑦ |①-②③|
口④④口 |--④-|
口②口口 |-⑤⑥⑦|
口①①口 |----|
28
口⑤⑤口 |①-②-|
⑥①①④ |③-④-|
⑦①①③ |⑤-⑥-|
⑧口口② |⑦-⑧-|
29
①口口① |①--②|
口③④⑤ |---③④⑤|
口口口②
口③④⑤

⑦⑦⑦⑦
口口口口
口⑥⑥口 |-⑥-⑦|
口口口口 |----|
30
口口口口 |①-②-|
口口④口 |③-④-|
①口③①
口口②口

⑤⑥口口
⑦口口口
口口口口 |⑤⑥-⑦|
口⑧⑧口 |---⑧|
31
口口③② |----|
口①口口 |①-②③|
口口口口
口口口口

口口口口
口⑦④口
口⑥⑤口 |----|
口口口口 |--④⑤⑥⑦--|
32
①①②② |①-②-|
口口⑤④ |③-④⑤|
口口口③
②②①①

⑦口口口
口⑥口口
⑧口口口 |⑥-⑦-|
口口口口 |⑧---|
33
口④口口 |①②-③|
③口口口 |-④-⑤|
口⑤口口
口口②①

口口⑦⑦
口⑥⑦⑦
⑥口⑥⑦ |⑥---|
口⑥⑦⑦ |⑦---|
34
⑤④口口 |①---|
⑥③③⑥ |②-③-|
⑥②口⑥ |--④-|
①口④⑤ |⑤-⑥-|
35
④口口① |①-②-|
口③②口 |③-④-|
口②③口
①口口④

口⑤⑤口
口口⑦⑥
口口⑦⑥ |⑤---|
口⑤⑤口 |⑥-⑦-|
36
②③口口 |①---|
口①口口 |②-③-|
口①口口
②③口口

口口④口
⑥⑤⑤⑥
口⑤⑤口 |④---|
口口④口 |⑤-⑥-|
37
⑤口口⑤ |①---|
口④④口 |②---|
①③③① |③--④|
口②②口 |--⑤-|
38
口③③口 |①---|
②口口② |②-③-|
②口口②
口口口①

口口口⑤
⑥口④⑥
⑥④口⑥ |--④-|
⑤口口口 |⑤-⑥-|
39
①口口④ |①-②-|
口②③口 |③-④-|
口③②口
④口口①

口⑤⑤口
⑥⑦口口
⑥⑦口口 |⑤---|
口⑤⑤口 |⑥-⑦-|
40
口口③② |①---|
口口①口 |②-③-|
口口①口
口口③②

口④口⑥
⑤口口⑤
⑤口口⑤ |④--⑤|
口④口口 |--⑥-|
41
③②①口 |①-②-|
④⑤⑥口 |③--④⑤⑥|
口口口口
④⑤⑥口

⑨口口⑨
口口口⑦
口⑧⑧口 |⑦--⑧|
口口口⑦ |--⑨-|
42
口口口口 |①---|
口②③口 |②-③-|
口口③口
①口口口

口⑥⑥⑤
口口口④
④口口口 |--④-|
⑤⑥⑥口 |⑤-⑥-|
43
①口口口 |①-②-|
②口④③ |③-④-|
③④口②
口口口①

⑥⑤⑤⑥
⑦口口⑦
口口口口 |⑤---|
口⑤⑤口 |⑥-⑦-|
44
口口口口 |①---|
口口口口 |②-③-|
①③③①
口②②口

口⑤⑤口
⑥④④口
口口口⑥ |④---|
口口口口 |⑤-⑥-|
45
⑤口口⑤ |①---|
口④③① |②---|
①③④口 |③--④|
口②②口 |--⑤-|
46
口口口口 |①---|
口③②口 |②-③-|
口③口口
口口口①

⑤⑥⑥口
④口口口
口口口④ |--④-|
口⑥⑥⑤ |⑤-⑥-|
47
口口口① |①-②-|
③④口② |③-④-|
②口④③
①口口口

⑥⑤⑤⑥
⑦口口⑦
口口口口 |⑤---|
口⑤⑤口 |⑥-⑦-|
48
口口口口 |①---|
口口口口 |②-③-|
①③③①
口②②口

口口口⑥
⑤④④⑤
⑤口口⑤ |④--⑤|
口口口口 |--⑥-|
49
③②①口 |①-②-|
④⑤⑥⑦ |③--④⑤⑥|
口⑧⑧口 |⑦--⑧|
④⑤⑥⑦ |----|
50
①①口口 |①---|
②②④③ |②-③-|
④④⑥⑤ |④-⑤-|
⑥⑥口⑦ |⑥-⑦-|
51
②②口② |①---|
①①口③ |②-③-|
口口口口
口口①口

口口口口
⑤⑤⑤口
④④⑥④ |④---|
口口口口 |⑤-⑥-|
52
②②④③ |①---|
④④⑥⑤ |②-③-|
⑥⑥⑦口 |④-⑤-|
①①①口 |⑥-⑦-|
53
③口口口 |①---|
③④⑤⑥ |②---|
⑦口口② |③-④⑤|
①①①② |⑥-⑦-|
54
②②②② |①---|
③口口口 |②-③-|
口口口口
①口口口

口口口口
口④口口
⑤⑥④④ |④-⑤-|
⑦口⑥⑥ |⑥-⑦-|
55
②口②② |①---|
③口①① |②-③-|
口口口口
口①口口

口口口口
口⑤⑤⑤
④⑥④④ |④---|
口口口口 |⑤-⑥-|
56
③④②② |①---|
⑤⑥④④ |②-③-|
口⑦⑥⑥ |④-⑤-|
口①①① |⑥-⑦-|
57
⑧⑦⑦⑧ |①---|
口③④口 |②---|
②⑤⑥口 |③④⑤⑥|
②①①① |⑦-⑧-|
58
口口口口 |①②③④|
①口口② |⑤⑥-⑦|
③⑦⑦④ |----|
⑤口口⑥ |----|
59
②口口③ |①---|
①②③④ |②---|
①口口④ |③---|
①口口④ |④---|
60
口①①口 |①-②-|
③⑨⑨⑤ |③-④-|
②⑧⑧④ |⑤-⑥⑦|
⑥口口⑦ |⑧-⑨-|
61
口②③④ |①-②③|
①口口⑤ |④-⑤-|
口口口口
口口口口

⑪口口⑪
口⑥⑦口
口⑧⑨口 |⑥⑦⑧⑨|
⑩口口⑩ |⑩-⑪-|
62
口①①口 |①-②-|
口口口口 |③---|
③口口②
口③②口

口口口口
口⑤⑤口
口⑤⑤⑥ |④---|
④口口④ |⑤-⑥-|
63
口②③④ |①-②③|
①⑥⑧⑤ |④-⑤-|
口⑦⑦口 |⑥--⑦|
口⑧⑥口 |--⑧-|
64
①口口① |①-②-|
⑤⑦⑦③ |③-④-|
④⑦⑦② |⑤-⑥-|
口⑥⑥口 |⑦---|
65
④③②口 |①-②③|
⑤口口① |④-⑤-|
口口口口
口口口口

⑪口口⑪
口⑦⑥口
口⑨⑧口 |⑥⑦⑧⑨|
⑩口口⑩ |⑩-⑪-|
66
口①①口 |①-②-|
②口口④ |③-④-|
②口口④
口③③口

⑤口口⑤
口⑥⑥口
⑦⑥⑥口 |⑤---|
口口口口 |⑥-⑦-|
67
④③②⑤ |①-②③|
口口口① |④-⑤-|
口口口口
口口口口

口口口口
⑩⑨⑥⑩
⑩⑧⑦⑩ |⑥⑦⑧⑨----|
口口口口 |⑩---|
68
⑤④②③ |①-②③|
口口口口 |-④⑤-|
口口口口
口口①①

口口口口
⑥口口⑧
口口口口 |⑥-⑦-|
⑥⑦⑦⑧ |⑧---|
69
②②口① |①---|
口②①口 |②---|
②①口口
②②口口

口口④④
口口④④
口口③④ |③---|
口口④④ |④---|

不確定度: 0

最終更新:2015年07月26日 19:14