Jailbreak
Kozo Nakamura

EXTREME

Level: 9
BPM: 250
Notes: 718

1
口口口口 |----|
口口口口 |----|
口口口口 |----|
口口口口 |----|
2
⑥口口⑥ |①---②-|
口④⑤口 |③---④-|
口②③口 |⑤---⑥-|
①口口① |----|
3
口口口口 |①---②-|
口⑦口③ |③---④-|
①口口② |----⑤-|
④口⑥⑤ |⑥---⑦-|
4
①口②口 |----①-|
③口④口 |②---③-|
⑤口⑥口 |④---⑤-|
口⑦口口 |⑥---⑦-|
5
⑧⑥口⑦ |①---②-|
口④口⑤ |③---④-|
口②口③ |⑤---⑥-|
口口口① |⑦---⑧-|
6
口口①口 |①---②-|
②口③口 |③---④-|
④⑧⑤口 |⑤---⑥-|
⑥口⑦口 |⑦---⑧-|
7
口口口口 |----①-|
口口⑤② |②---③-|
⑥口④① |----④-|
口③口口 |⑤---⑥-|
8
⑦①口② |----①-|
口③口④ |②---③-|
口⑤口⑥ |④---⑤-|
口口口口 |⑥---⑦-|
9
口口①口 |①---②-|
②口③口 |③---④-|
④口⑤口 |⑤---⑥-|
⑥⑧⑦口 |⑦---⑧-|
10
口⑥口⑦ |①---②-|
口④口⑤ |③---④-|
口②口③ |⑤---⑥-|
⑧口口① |⑦---⑧-|
11
口口口口 |----①-|
③口口⑤ |②---③-|
口口②④ |----④-|
口⑥①口 |⑤---⑥-|
12
①③⑤口 |----①-|
口口口⑦ |②---③-|
②④⑥口 |④---⑤-|
口口口口 |⑥---⑦-|
13
⑧口口口 |①---②-|
⑥④②口 |③---④-|
口口口口 |⑤---⑥-|
⑦⑤③① |⑦---⑧-|
14
口②④⑥ |①---②-|
口口口口 |③---④-|
①③⑤⑦ |⑤---⑥-|
⑧口口口 |⑦---⑧-|
15
口口口口 |----①-|
③口①② |②---③-|
⑥口口口 |----④-|
口口④⑤ |⑤---⑥-|
16
口⑤③① |----①-|
口口口⑦ |②---③-|
口⑥④② |④---⑤-|
口口口口 |⑥---⑦-|
17
⑧口口口 |①---②-|
⑥④②口 |③---④-|
口口口口 |⑤---⑥-|
⑦⑤③① |⑦---⑧-|
18
口②④⑥ |①---②-|
口口口口 |③---④-|
①③⑤⑦ |⑤---⑥-|
口口口口 |⑦---|
19
口⑥口口 |①---②-|
①①③口 |----③-|
口⑤④口 |----④-|
口口②口 |⑤---⑥-|
20
口口口① |①---②-|
口口口① |----③-|
口口口口 |----|
③②口口 |----|
21
口⑥口口 |①---②-|
①①③口 |----③-|
口⑤④口 |----④-|
口口②口 |⑤---⑥-|
22
口口口① |①---②-|
口口口① |----③-|
③口口口 |----|
②口口口 |----|
23
口②④口 |①---|
口②④口 |②---|
口口口口 |③---|
口①③口 |④---|
24
①口口③ |①---|
口口口口 |②---|
口②④口 |③---|
口②④口 |④---|
25
口③③口 |①-②-|
口④④口 |--③-|
①口口② |--④-|
①⑤⑤② |--⑤-|
26
②口口② |①---|
③口口③ |②-③-④-|
④①①④ |⑤---|
⑤口口⑤ |----|
27
口口口口 |①---②-|
口④③口 |③---|
口②口⑤ |④---|
口④①⑤ |⑤---|
28
③③④④ |①---|
①口口口 |②---③-|
口口口口 |----④-|
①口②口 |----|
29
口口口口 |①---②-|
口③④口 |③---|
口口②口 |④---|
⑤①④口 |⑤---|
30
②②①① |①---|
④口口③ |②---|
⑤口口口 |③---④-|
口口口③ |⑤---|
31
口口口口 |①---②-|
口④③口 |③---|
口②口⑤ |④---|
口④①⑤ |⑤---|
32
③③④④ |①---|
①口口口 |②---③-|
口口口口 |----④-|
①口②口 |----|
33
口口口口 |①---②-|
口③④口 |③---|
口口②口 |④---|
⑤①④口 |⑤---|
34
②②①① |①---|
④口口③ |②---|
⑤口口口 |③---④-|
口口口③ |⑤---|
35
口口口口 |①---②-|
口④③⑤ |③---|
口②口口 |④---|
口④①⑤ |⑤---|
36
③④③④ |①---|
①口口口 |②---③-|
③口口④ |----④-|
①口②口 |----|
37
口口口口 |①---②-|
口③④口 |③---|
口口②口 |④---|
⑤①④口 |⑤---|
38
②②①① |①---|
④口口③ |②---|
⑤口口口 |③---④-|
口口口③ |⑤---|
39
口口口口 |①---②-|
口④③⑤ |③---|
口②口口 |④---|
口④①⑤ |⑤---|
40
③④③④ |①---|
①口口口 |②---③-|
③口口④ |----④-|
①口②口 |----|
41
口口口口 |①---②-|
口③④口 |③---|
口口②口 |④---|
⑤①④口 |⑤---|
42
②②①① |①---|
④口口③ |②---|
⑤口口口 |③---④-|
口口口③ |⑤---|
43
口④口⑤ |①---②-|
口①口口 |③----④--|
口口口③ |-----⑤--|
口口②⑥ |-----⑥--|
44
②口②口 |①---|
口②口① |-----②--|
②口②口 |----|
口口口口 |----|
45
口⑤口④ |①----②--|
③口口口 |③----④--|
口口口① |-----⑤--|
口②⑥口 |-----⑥--|
46
口口口口 |①---|
口②①② |-----②--|
口口②口 |----|
口②口② |----|
47
口口口① |①---②-|
②口④口 |③---④-|
③⑤口口 |----⑤-|
口口⑥口 |----⑥-|
48
①口口口 |①---②-|
⑥口口② |③---④-|
口口口③ |----⑤-|
④口口⑤ |----⑥-|
49
口①①口 |----①-|
口②②口 |--②---|
口③③口 |③---④-|
⑤④④⑤ |--⑤---|
50
②口口② |①---|
口②②口 |----|
①口口① |②---|
口口口口 |----|
51
口①口口 |①---|
口口口口 |----②-|
②②口口 |----|
口口口口 |----|
52
口口口口 |----|
①②口口 |①---|
口口口口 |----|
口口口口 |②---|
53
口口①口 |①---|
口口口口 |----②-|
口口②② |----|
口口口口 |----|
54
口口口口 |----|
口口②① |①---|
口口口口 |----|
口口口口 |②---|
55
②②口口 |①---|
口口口口 |----②-|
口①口口 |----|
口口口口 |----|
56
口口口口 |----|
①②口口 |①---|
口口口口 |----|
口口口口 |②---|
57
口口②② |①---|
口口口口 |----②-|
口口①口 |----|
口口口口 |----|
58
口口口口 |----|
口口口① |①---|
口口②口 |----|
口口口口 |②---|
59
口①①口 |①---|
口口口口 |----|
口口口口 |----|
口口口口 |----|
60
口口口口 |----|
口口口口 |----|
口口口口 |----|
口口口口 |----|
61
口⑥口⑦ |①---②-|
口⑤④口 |----③-|
口口③口 |④---⑤-|
②口口① |⑥---⑦-|
62
口口口口 |----①-|
①口口口 |②-③-④-|
②⑤口④ |⑤---|
③口⑥口 |⑥---|
63
①口③② |①---②-|
⑦口⑥⑤ |③---④-|
④口口口 |----⑤-|
口口口口 |⑥---⑦-|
64
口口口口 |----①-|
口口口口 |②---③-|
口口②① |----④-|
③口⑤④ |⑤---|
65
①口口② |①---②-|
口③④口 |----③-|
⑤口口⑥ |④---|
口口口口 |⑤---⑥-|
66
④口③⑤ |----①-|
口口口口 |②---|
口口口口 |③---④-|
口①②口 |⑤---|
67
口⑦⑩口 |①-②-③-|
①⑧⑪④ |④-⑤-⑥-|
②⑨⑫⑤ |⑦-⑧-⑨-|
③口口⑥ |⑩-⑪-⑫-|
68
①口口① |①---|
③口口⑥ |②---|
④口口⑦ |③-④-⑤-|
⑤②②⑧ |⑥-⑦-⑧-|
69
⑤①④⑥ |①-②-③-|
⑨②口口 |④---⑤-|
口③口口 |⑥---⑦-|
口⑦⑧口 |⑧---⑨-|
70
口口口口 |①---②-|
口④①⑤ |③---④-|
②⑥③⑦ |⑤---⑥-|
口口口口 |⑦---|
71
②口①⑥ |①---②-|
③⑦口口 |③-④---|
④口⑤口 |⑤---⑥-|
口口口口 |----⑦-|
72
④口口口 |①---②-|
口口口① |③---④-|
⑤②⑥③ |----⑤-|
口⑦口口 |⑥---⑦-|
73
⑥⑥⑤⑤ |①---②-|
②口③口 |③---|
口④口口 |④---⑤-|
口口口① |----⑥-|
74
口口口口 |----|
口口口口 |----|
口口口口 |----|
口口口口 |----|
75
⑥②⑥① |①---|
口③口口 |②-③-④-|
口④口⑤ |⑤---|
口口口口 |⑥---|
76
口口口④ |①-②-|
③口口口 |③-④-|
①⑦口⑥ |⑤-⑥-|
⑤口②口 |⑦---|
77
①②③口 |①-②-③-|
口⑥⑤④ |④-⑤-⑥-|
⑦口⑨口 |⑦-⑧-|
口⑧口口 |⑨---|
78
口④口① |①-②-③-|
②⑧⑥口 |④-⑤-|
口⑤口③ |⑥-⑦-|
口口⑦口 |⑧---|
79
口口口口 |①---|
口口口口 |----|
口口口口 |----|
口①口口 |----|
80
①③①③ |①---②-|
④②④② |--③---|
⑤⑥⑤⑥ |④---⑤-|
口口口口 |--⑥---|
81
口口口口 |①---|
口口口口 |----|
口口口口 |----|
口①口① |----|
82
③口口③ |①---②-|
口①②口 |----③-|
①口口② |----④-|
口④⑤口 |⑤---|
83
口口口口 |①---|
①口口① |----|
口①①口 |----|
①口口① |----|
84
口口口口 |①---|
口口口口 |----|
口口口口 |----|
口①①口 |----|
85
口口口口 |①---|
口①①口 |----|
口①①口 |----|
口口口口 |----|
86
①①①① |①---|
①口口① |----|
口口口口 |----|
口口口口 |----|
87
⑤④④⑤ |①---②-|
⑥③③⑥ |--③---|
口②②口 |④---⑤-|
口①①口 |--⑥---|
88
口口口口 |①---|
口②②口 |----|
①口口① |②---|
口口口口 |----|
89
口口口口 |①---②-|
口口⑥③ |③---④-|
④⑦口口 |----⑤-|
①口⑤② |⑥---⑦-|
90
①口②口 |----①-|
口③口④ |②---③-|
⑤口⑥口 |④---⑤-|
口⑦口口 |⑥---⑦-|
91
⑧⑥口⑦ |①---②-|
④口⑤口 |③---④-|
口②口③ |⑤---⑥-|
口口口① |⑦---⑧-|
92
口口①口 |①---②-|
⑧②口③ |③---④-|
④口⑤口 |⑤---⑥-|
口⑥口⑦ |⑦---⑧-|
93
口口口⑤ |----①-|
口口②口 |②---③-|
口⑥口④ |----④-|
③口①口 |⑤---⑥-|
94
①口②口 |----①-|
口③口④ |②---③-|
⑤口⑥口 |④---⑤-|
口⑦口口 |⑥---⑦-|
95
⑧⑥口⑦ |①---②-|
④口⑤口 |③---④-|
口②口③ |⑤---⑥-|
口口口① |⑦---⑧-|
96
口口①口 |①---②-|
⑧②口③ |③---④-|
④口⑤口 |⑤---⑥-|
口⑥口⑦ |⑦---⑧-|
97
口口口⑤ |----①-|
口口②口 |②---③-|
口⑥口④ |----④-|
③口①口 |⑤---⑥-|
98
①口⑤口 |----①-|
口③口⑦ |②---③-|
②口⑥口 |④---⑤-|
口④口口 |⑥---⑦-|
99
⑧④口口 |①---②-|
⑥口②口 |③---④-|
口⑤口口 |⑤---⑥-|
⑦口③① |⑦---⑧-|
100
口口④口 |①---②-|
口②口⑥ |③---④-|
①口⑤口 |⑤---⑥-|
⑧③口⑦ |⑦---⑧-|
101
口口口⑤ |----①-|
③口②口 |②---③-|
口⑥口④ |----④-|
口口①口 |⑤---⑥-|
102
①口⑤口 |----①-|
口③口⑦ |②---③-|
②口⑥口 |④---⑤-|
口④口口 |⑥---⑦-|
103
⑧④口口 |①---②-|
⑥口②口 |③---④-|
口⑤口口 |⑤---⑥-|
⑦口③① |⑦---⑧-|
104
口口④口 |①---②-|
口②口⑥ |③---④-|
①口⑤口 |⑤---⑥-|
口③口⑦ |⑦---|
105
口④口⑤ |①---②-|
口口口口 |③----④--|
口①口③ |-----⑤--|
口口②⑥ |-----⑥--|
106
②口②口 |①---|
口②口① |-----②--|
②口②口 |----|
口口口口 |----|
107
口⑤口④ |①----②--|
③口口口 |③----④--|
口口口① |-----⑤--|
口②⑥口 |-----⑥--|
108
口口口口 |①---|
口②①② |-----②--|
口口②口 |----|
口②口② |----|
109
口口口① |①----②--|
②口④口 |③---④-|
③⑤口口 |----⑤-|
口口⑥口 |----⑥-|
110
①④口⑤ |①----②--|
⑥口口② |③---④-|
口口口③ |----⑤-|
口口口口 |----⑥-|
111
⑧口口口 |①---②-|
口⑥①⑦ |③---④-|
④口⑤口 |⑤---⑥-|
口②口③ |⑦---⑧-|
112
口口①口 |①---|
②口②口 |----|
口②口口 |②---|
②口②口 |----|


不确定度: 0

タグ:

+ タグ編集
  • タグ:

このサイトはreCAPTCHAによって保護されており、Googleの プライバシーポリシー利用規約 が適用されます。

最終更新:2012年11月10日 13:53