過食性:アイドル症候群
スズム feat.GUMI & MAYU

BASIC

Level: 5
BPM: 200
Notes: 416

1
口口口口 |----|
口口口口 |----|
口口口口 |----|
口口口口 |----|
2
口口口口 |①---|
口口口口 |②---|
口口口口 |③---|
①②③④ |④---|
3
③口口③ |①---|
④口口④ |②---|
口①②口 |③---|
口口口口 |④---|
4
口口口口 |①---|
口口口口 |②---|
口口口口 |③---|
①②③④ |④---|
5
③口口③ |①---|
④口口④ |②---|
口①②口 |③---|
口口口口 |④---|
6
口口口口 |①---|
口口口口 |②---|
口口口口 |③---|
④③②① |④---|
7
③口口③ |①---|
④口口④ |②---|
口②①口 |③---|
口口口口 |④---|
8
口口口口 |①---|
口口口口 |②---|
口口口口 |③---|
④③②① |④---|
9
③口口③ |①---|
④口口④ |②---|
口②①口 |③---|
口口口口 |④---|
10
口口口口 |①---|
口②①口 |----|
口口口口 |②---|
口口口口 |----|
11
口口口口 |①---|
口口口口 |----|
口①①口 |----|
口口口口 |----|
12
口口口口 |①---|
口①②口 |----|
口口口口 |②---|
口口口口 |----|
13
口口口口 |①---|
口口口口 |----|
口①①口 |----|
口口口口 |----|
14
口口口口 |①---|
②口口① |----|
口口口口 |②---|
口口口口 |----|
15
口口口口 |①---|
口口口口 |----|
①口口① |----|
口口口口 |----|
16
口口口口 |①---|
①口口② |----|
口口口口 |②---|
口口口口 |----|
17
口④④口 |①---|
口③③口 |②---|
口②②口 |③---|
口①①口 |④---|
18
②口口① |①---|
④口口③ |②---|
口口口口 |③---|
口口口口 |④---|
19
口口口口 |①---|
口口口口 |----|
口①①口 |----|
口口口口 |----|
20
口口口口 |①---|
口口口口 |②---|
③口口④ |③---|
①口口② |④---|
21
口口口口 |①---|
口①①口 |----|
口口口口 |----|
口口口口 |----|
22
②口口① |①---|
④口口③ |②---|
口口口口 |③---|
口口口口 |④---|
23
口口口口 |①---|
口口口口 |----|
口①①口 |----|
口口口口 |----|
24
口口口口 |①---|
口口口口 |②---|
③口口④ |③---|
①口口② |④---|
25
口④④口 |①---|
口③③口 |②---|
口②②口 |③---|
口①①口 |④---|
26
①口口① |①---|
口口口口 |----|
口口口口 |----|
口口口口 |----|
27
口口口口 |----|
口口口口 |----|
口①①口 |----|
口口口口 |①---|
28
口口口口 |①---|
①口口① |--②-|
②口口② |----|
③口口③ |③---|
29
口口口口 |----|
口口口口 |----|
①口口① |--①-|
口口口口 |----|
30
口口口口 |①---|
①口口① |----|
口口口口 |----|
口口口口 |----|
31
口口口口 |----|
口口口口 |----|
口②①口 |----|
口口口口 |①-②-|
32
②④③① |①-②-|
口口口口 |③-④-|
口口口口 |--⑤-|
⑥口⑦⑤ |⑥-⑦-|
33
口口口口 |①---|
口口口口 |----|
口口口口 |----|
口①口口 |----|
34
口④口口 |①---|
口③口口 |②---|
②口口口 |③---|
①口口口 |④---|
35
口口②① |①---|
口口④③ |②---|
口口口口 |③---|
口口口口 |④---|
36
口口口口 |①---|
口口口口 |②---|
口②③口 |③---|
口①④口 |④---|
37
③③③③ |①---|
①口口② |②---|
口口口口 |③---|
④④④④ |④---|
38
口口口口 |①---|
口口④③ |②---|
口口②① |③---|
口口口口 |④---|
39
①口口口 |①---|
②口口口 |②---|
③口口口 |③---|
④口口口 |④---|
40
口口口口 |①---|
②口口① |----|
②口口① |②---|
口口口口 |----|
41
②①①② |①---|
④③③④ |②---|
口口口口 |③---|
口口口口 |④---|
42
口④口口 |①---|
口③口口 |②---|
②口口口 |③---|
①口口口 |④---|
43
口口②① |①---|
口口④③ |②---|
口口口口 |③---|
口口口口 |④---|
44
口口口口 |①---|
口口口口 |②---|
口②③口 |③---|
口①④口 |④---|
45
③③③③ |①---|
①口口② |②---|
口口口口 |③---|
④④④④ |④---|
46
口口口口 |①---|
口口④③ |②---|
口口②① |③---|
口口口口 |④---|
47
①口口口 |①---|
②口口口 |②---|
③口口口 |③---|
④口口口 |④---|
48
口口口口 |①---|
口口口口 |②---|
口④③口 |③---|
口②①口 |④---|
49
④口口④ |①---|
②③③① |②---|
②口口① |③---|
口口口口 |④---|
50
口口口口 |①---|
口口口口 |----|
口口②① |②---|
口口口口 |----|
51
口口口口 |①---|
口口口口 |----|
①②口口 |②---|
口口口口 |----|
52
口口口口 |①---|
口口②① |----|
口口口口 |②---|
口口口口 |----|
53
口口口口 |①---|
①②口口 |----|
口口口口 |②---|
口口口口 |----|
54
口口口口 |①---|
口口口口 |----|
口口口口 |②---|
口②①口 |----|
55
口口口口 |①---|
口口口口 |----|
口②①口 |②---|
口口口口 |----|
56
口口口口 |①---|
口②①口 |----|
口口口口 |②---|
口口口口 |----|
57
①口口① |①---|
②④④② |②---|
③口口③ |③---|
口口口口 |④---|
58
口口口口 |①---|
口口口口 |②---|
④口口③ |③---|
②口口① |④---|
59
口②①口 |①---|
口④③口 |②---|
口口口口 |③---|
口口口口 |④---|
60
口口口口 |①---|
口口口口 |②---|
口口口口 |③---|
④③②① |④---|
61
①口口① |①---|
②口口② |②---|
③口口③ |③---|
④口口④ |④---|
62
口口口口 |①---|
口口口口 |②---|
口③④口 |③---|
口①②口 |④---|
63
①口口② |①---|
③口口④ |②---|
口口口口 |③---|
口口口口 |④---|
64
口口口口 |①---|
口口口口 |②---|
口口口口 |③---|
①②③④ |④---|
65
④③③④ |①---|
口②②口 |②---|
口①①口 |③---|
口口口口 |④---|
66
口④口口 |①---|
口③口口 |②---|
②口口口 |③---|
①口口口 |④---|
67
口口②① |①---|
口口④③ |②---|
口口口口 |③---|
口口口口 |④---|
68
口口口口 |①---|
口口口口 |②---|
口②③口 |③---|
口①④口 |④---|
69
③③③③ |①---|
①口口② |②---|
口口口口 |③---|
④④④④ |④---|
70
口口口口 |①---|
口口④③ |②---|
口口②① |③---|
口口口口 |④---|
71
①口口口 |①---|
②口口口 |②---|
③口口口 |③---|
④口口口 |④---|
72
口口口口 |①---|
②口口① |----|
②口口① |②---|
口口口口 |----|
73
②①①② |①---|
④③③④ |②---|
口口口口 |③---|
口口口口 |④---|
74
口④口口 |①---|
口③口口 |②---|
②口口口 |③---|
①口口口 |④---|
75
口口②① |①---|
口口④③ |②---|
口口口口 |③---|
口口口口 |④---|
76
口口口口 |①---|
口口口口 |②---|
口②③口 |③---|
口①④口 |④---|
77
③③③③ |①---|
①口口② |②---|
口口口口 |③---|
④④④④ |④---|
78
口口口口 |①---|
口口④③ |②---|
口口②① |③---|
口口口口 |④---|
79
①口口口 |①---|
②口口口 |②---|
③口口口 |③---|
④口口口 |④---|
80
口口口口 |①---|
口口口口 |②---|
口④③口 |③---|
口②①口 |④---|
81
④口口④ |①---|
②③③① |②---|
②口口① |③---|
口口口口 |④---|
82
口口口口 |①---|
口口口口 |----|
口口①口 |----|
口口口口 |----|
83
口口口口 |①---|
②口口② |----|
口①口口 |----|
口口口口 |②---|
84
口口口口 |①---|
口口口口 |②---|
口口口口 |③---|
①②③④ |④---|
85
③口口③ |①---|
④口口④ |②---|
口①②口 |③---|
口口口口 |④---|
86
口口口口 |①---|
口口口口 |②---|
口口口口 |③---|
①②③④ |④---|
87
③口口③ |①---|
④口口④ |②---|
口①②口 |③---|
口口口口 |④---|
88
口口口口 |①---|
口口口口 |②---|
口口口口 |③---|
④③②① |④---|
89
③口口③ |①---|
④口口④ |②---|
口②①口 |③---|
口口口口 |④---|
90
口口口口 |①---|
口口口口 |②---|
口口口口 |③---|
④③②① |④---|
91
③口口③ |①---|
④口口④ |②---|
口②①口 |③---|
口口口口 |④---|
92
口口口口 |①---|
口②①口 |----|
口口口口 |②---|
口口口口 |----|
93
口口口口 |①---|
口口口口 |----|
口①①口 |----|
口口口口 |----|
94
口口口口 |①---|
口①②口 |----|
口口口口 |②---|
口口口口 |----|
95
口口口口 |①---|
口口口口 |----|
口①①口 |----|
口口口口 |----|
96
口口口口 |①---|
②口口① |----|
口口口口 |②---|
口口口口 |----|
97
口口口口 |①---|
口口口口 |----|
①口口① |----|
口口口口 |----|
98
口口口口 |①---|
①口口② |----|
口口口口 |②---|
口口口口 |----|
99
口④④口 |①---|
口③③口 |②---|
口②②口 |③---|
口①①口 |④---|
100
口口口① |①---|
口口口② |--②-|
口口口③ |----|
口口口口 |③---|
101
口口口口 |--①-|
口口口口 |----|
口口口口 |----|
口口口① |----|

不確定度: 0

最終更新:2015年04月26日 10:20