過食性:アイドル症候群
スズム feat.GUMI & MAYU

ADVANCED

Level: 9
BPM: 200
Notes: 716

1
口口口口 |----|
口口口口 |----|
口口口口 |----|
口口口口 |----|
2
②口口① |①-②-|
④⑦⑤③ |③-④-|
口⑧⑥口 |⑤-⑥-|
口口口口 |⑦-⑧-|
3
口口口口 |①-②-|
口⑧⑤口 |③-④-|
④口口③ |⑤-⑥-|
②⑦⑥① |⑦-⑧-|
4
②口口① |①-②-|
④⑦⑤③ |③-④-|
口⑧⑥口 |⑤-⑥-|
口口口口 |⑦-⑧-|
5
口⑥⑦口 |①-②-|
口⑧⑤口 |③-④-|
④口口③ |⑤-⑥-|
②口口① |⑦-⑧-|
6
②口口① |①-②-|
④⑦⑤③ |③-④-|
口⑧⑥口 |⑤-⑥-|
口口口口 |⑦-⑧-|
7
口口口口 |①-②-|
口⑧⑤口 |③-④-|
④口口③ |⑤-⑥-|
②⑦⑥① |⑦-⑧-|
8
②口口① |①-②-|
④⑦⑤③ |③-④-|
口⑧⑥口 |⑤-⑥-|
口口口口 |⑦-⑧-|
9
口口⑤口 |①-②-|
口⑥口口 |③-④-|
④口⑦③ |⑤-⑥-|
②⑧口① |⑦-⑧-|
10
口口口口 |①---|
口口③② |②-③-|
④口口口 |--④-|
口⑤①口 |--⑤-|
11
口口口口 |----|
口③②口 |----|
口①口口 |--①-|
口口口口 |②-③-|
12
②③①口 |①---|
口口口④ |②-③-|
口口⑤口 |--④-|
口口口口 |--⑤-|
13
口口口口 |----|
口③②口 |----|
口①口口 |--①-|
口口口口 |②-③-|
14
②③①口 |①---|
口口口④ |②-③-|
口口⑤口 |--④-|
口口口口 |--⑤-|
15
口口口口 |----|
口③②口 |----|
口①口口 |--①-|
口口口口 |②-③-|
16
②③①口 |①---|
口口口④ |②-③-|
口口⑤口 |--④-|
口口口口 |--⑤-|
17
口口口口 |①-②-|
⑤口口⑤ |③-④-|
口⑥⑥口 |--⑤-|
①③④② |--⑥-|
18
口①①口 |①---|
口③②口 |②-③-|
口口口④ |--④-|
口口⑤口 |--⑤-|
19
口口口口 |----|
口口口口 |----|
①②③口 |--①-|
口口口口 |②-③-|
20
口④口口 |①---|
⑤②③口 |②-③-|
口口口① |--④-|
口口口口 |--⑤-|
21
口口口口 |----|
口口口口 |----|
口口②口 |--①-|
口③口① |②-③-|
22
口口④口 |①---|
口③②⑤ |②-③-|
①口口口 |--④-|
口口口口 |--⑤-|
23
口口口口 |----|
口口口口 |----|
①口③口 |--①-|
口②口口 |②-③-|
24
口口口⑤ |①---|
口②③口 |②-③-|
口口口口 |--④-|
口④④① |--⑤-|
25
①口口口 |①---|
③口口② |②-③-|
口④④口 |--④-|
口口口口 |----|
26
口口口口 |①---|
口口口口 |----|
口口口口 |----|
①①①① |----|
27
口口口口 |----|
口②口口 |----|
口口①口 |----|
口口口口 |①-②-|
28
口口①口 |①---|
口口②口 |--②-|
口口③口 |----|
口口口口 |③---|
29
口口口口 |----|
口③②口 |----|
口①口口 |--①-|
口口口口 |②-③-|
30
①口口① |①---|
口口口口 |----|
口口口口 |----|
口口口口 |----|
31
②口口口 |----|
口口口口 |----|
口口口口 |----|
口口口① |①-②-|
32
⑦⑤③① |①-②-|
⑦⑤③① |③-④-|
②④⑥口 |--⑤-|
②④⑥口 |⑥-⑦-|
33
口②②② |①---|
口口口口 |----|
口口口① |--②-|
③③③① |--③-|
34
⑤⑥⑦口 |①-②-|
口③口① |③-④-|
④口②口 |--⑤-|
口口口口 |⑥-⑦-|
35
口口口口 |①-②-|
①口③口 |③-④-|
口②口④ |--⑤-|
口⑦⑥⑤ |⑥-⑦-|
36
⑤⑥⑦口 |①-②-|
口③口① |③-④-|
④口②口 |--⑤-|
口口口口 |⑥-⑦-|
37
⑤口口④ |--①-|
①⑤④口 |②-③-|
③④⑤② |④---|
④口口⑤ |⑤---|
38
口口口口 |①-②-|
②口⑦① |③-④-|
④口⑥③ |--⑤-|
口口⑤口 |⑥-⑦-|
39
①口口② |①-②-|
③⑤口④ |③-④-|
口⑥口口 |--⑤-|
口⑦口口 |⑥-⑦-|
40
口④口① |①-②-|
④⑥①口 |--③-|
口⑤③② |④-⑤-|
⑤口②口 |--⑥-|
41
⑧④①⑤ |①-②-|
④⑧⑤① |③-④-|
②⑥⑦③ |⑤-⑥-|
⑥②③⑦ |⑦-⑧-|
42
口口口口 |①-②-|
④口口① |③-④-|
②口⑦③ |--⑤-|
口⑥⑤口 |⑥-⑦-|
43
口口口① |①-②-|
口口②口 |③-④-|
口③口口 |--⑤-|
④⑦⑥⑤ |⑥-⑦-|
44
口②口① |①-②-|
口④口③ |③-④-|
口口口口 |--⑤-|
⑤⑥⑦口 |⑥-⑦-|
45
⑤口口④ |--①-|
②⑤④③ |②-③-|
口④⑤① |④---|
④口口⑤ |⑤---|
46
⑤⑥⑦口 |①-②-|
口口口口 |③-④-|
①口口③ |--⑤-|
口②④口 |⑥-⑦-|
47
口口⑦口 |①-②-|
口②⑥④ |③-④-|
口口⑤口 |--⑤-|
①口③口 |⑥-⑦-|
48
④⑥⑥④ |①-②-|
①口口口 |③-④-|
口口口② |--⑤-|
③⑤⑤口 |--⑥-|
49
⑤⑤⑤⑤ |--①-|
②④③① |②-③-|
②④③① |④---|
口口口口 |⑤---|
50
口口口口 |①---|
③口口口 |②---|
④口口口 |③---|
口口②① |④---|
51
口口口口 |①---|
④口口① |②---|
口③②口 |③---|
口口口口 |④---|
52
①②口③ |①---|
口口口④ |②---|
口口口口 |③---|
口口口口 |④---|
53
口口口口 |①---|
口③②口 |②---|
口①④口 |③---|
口口口口 |④---|
54
口口口口 |①---|
③口口口 |②---|
④口口口 |③---|
口口②① |④---|
55
口口口① |①---|
口口②口 |②---|
口③口口 |③---|
④口口口 |④---|
56
口口②① |①---|
③口口口 |②---|
④口口口 |③---|
口口口口 |④---|
57
①③④② |①---|
口口口口 |②---|
口口口口 |③---|
②④③① |④---|
58
⑧口⑦③ |①-②-|
⑥②口口 |③-④-|
口口⑤① |⑤-⑥-|
④口口口 |⑦-⑧-|
59
口⑥口⑤ |①-②-|
口口③口 |③-④-|
④口⑦① |⑤-⑥-|
⑧②口口 |⑦-⑧-|
60
②口口口 |①-②-|
口口⑤⑦ |③-④-|
⑥⑧口③ |⑤-⑥-|
口④口① |⑦-⑧-|
61
①③④② |①---|
口口口口 |②---|
口口口口 |③---|
②④③① |④---|
62
④口口⑦ |①-②-|
口⑥①口 |③-④-|
②口口③ |⑤-⑥-|
⑧口⑤口 |⑦-⑧-|
63
口口③⑦ |①-②-|
②⑥口口 |③-④-|
⑧④①口 |⑤-⑥-|
口口口⑤ |⑦-⑧-|
64
④口口口 |①-②-|
⑧口⑤口 |③-④-|
口⑥口③ |⑤-⑥-|
②口①⑦ |⑦-⑧-|
65
③①①③ |①---|
口③③口 |②---|
口⑤④口 |③---|
口②②口 |④-⑤-|
66
⑤②①口 |①-②-|
②口⑥① |③-④-|
④⑦口③ |--⑤-|
口④③口 |⑥-⑦-|
67
口口①① |①-②-|
②②口口 |③-④-|
⑤⑦③③ |--⑤-|
④④口⑥ |⑥-⑦-|
68
④③②① |①-②-|
④③②① |③-④-|
口口⑦口 |--⑤-|
⑤⑥⑦口 |⑥-⑦-|
69
⑤口口④ |--①-|
口⑤④③ |②-③-|
②④⑤① |④---|
④口口⑤ |⑤---|
70
口①④⑤ |①-②-|
①口⑦④ |③-④-|
③⑥口② |--⑤-|
口③②口 |⑥-⑦-|
71
①③口口 |①-②-|
①③⑦口 |③-④-|
⑤⑥②② |--⑤-|
口口④④ |⑥-⑦-|
72
②口口① |①-②-|
②口口① |--③-|
⑤⑦⑥④ |④-⑤-|
口③③口 |⑥-⑦-|
73
②④③① |①-②-|
④②①③ |③-④-|
⑥⑧⑦⑤ |⑤-⑥-|
⑧⑥⑤⑦ |⑦-⑧-|
74
②④③① |①-②-|
④②①③ |③-④-|
口口口口
口口口口

口口口⑦
口口口口
口口口口 |--⑤-|
口⑥⑤口 |⑥-⑦-|
75
⑤口⑦口 |①-②-|
⑥②①口 |③-④-|
④②①③ |--⑤-|
④口口③ |⑥-⑦-|
76
口③口① |①-②-|
口③口① |③-④-|
④口②⑦ |--⑤-|
④⑥②⑤ |⑥-⑦-|
77
⑤①②④ |--①-|
③⑤④口 |②-③-|
口④⑤口 |④---|
④口口⑤ |⑤---|
78
口③③口 |①-②-|
④⑦口① |③-④-|
④口⑥① |--⑤-|
口②②⑤ |⑥-⑦-|
79
④④③① |①-②-|
口口③① |③-④-|
口⑥⑦口 |--⑤-|
②②口⑤ |⑥-⑦-|
80
④⑥⑥④ |①-②-|
①口口口 |③-④-|
口口口② |--⑤-|
③⑤⑤口 |--⑥-|
81
口口口口 |--①-|
②④③① |②-③-|
②④③① |④---|
口口口口 |----|
82
④③②① |①-②-|
口⑤⑤口 |③-④-|
口口口口 |--⑤-|
⑥口口口 |--⑥-|
83
口⑥⑥口 |①-②-|
④口口③ |③-④-|
⑥②①⑥ |⑤---|
口⑤⑤口 |⑥---|
84
②口口① |①-②-|
④⑦⑤③ |③-④-|
口⑧⑥口 |⑤-⑥-|
口口口口 |⑦-⑧-|
85
口口口口 |①-②-|
口⑧⑤口 |③-④-|
④口口③ |⑤-⑥-|
②⑦⑥① |⑦-⑧-|
86
②口口① |①-②-|
④⑦⑤③ |③-④-|
口⑧⑥口 |⑤-⑥-|
口口口口 |⑦-⑧-|
87
口⑥⑦口 |①-②-|
口⑧⑤口 |③-④-|
④口口③ |⑤-⑥-|
②口口① |⑦-⑧-|
88
②口口① |①-②-|
④⑦⑤③ |③-④-|
口⑧⑥口 |⑤-⑥-|
口口口口 |⑦-⑧-|
89
口口口口 |①-②-|
口⑧⑤口 |③-④-|
④口口③ |⑤-⑥-|
②⑦⑥① |⑦-⑧-|
90
②口口① |①-②-|
④⑦⑤③ |③-④-|
口⑧⑥口 |⑤-⑥-|
口口口口 |⑦-⑧-|
91
口口⑤口 |①-②-|
口⑥口口 |③-④-|
④口⑦③ |⑤-⑥-|
②⑧口① |⑦-⑧-|
92
口口口口 |①---|
口口③② |②-③-|
④口口口 |--④-|
口⑤①口 |--⑤-|
93
口口口口 |----|
口③②口 |----|
口①口口 |--①-|
口口口口 |②-③-|
94
②③①口 |①---|
口口口④ |②-③-|
口口⑤口 |--④-|
口口口口 |--⑤-|
95
口口口口 |----|
口③②口 |----|
口①口口 |--①-|
口口口口 |②-③-|
96
②③①口 |①---|
口口口④ |②-③-|
口口⑤口 |--④-|
口口口口 |--⑤-|
97
口口口口 |----|
口③②口 |----|
口①口口 |--①-|
口口口口 |②-③-|
98
②③①口 |①---|
口口口④ |②-③-|
口口⑤口 |--④-|
口口口口 |--⑤-|
99
口口口口 |①-②-|
⑤口口⑤ |③-④-|
口口口口 |--⑤-|
①③④② |----|
100
口①①口 |①---|
口②②口 |--②-|
口③③口 |----|
口口口口 |③---|
101
口口口口 |--①-|
口口口口 |----|
口口口口 |----|
口①①口 |----|

不確定度: 0

最終更新:2015年04月25日 22:33