乙女繚乱 舞い咲き誇れ
日向美ビタースイーツ♪

BASIC

Level: 4
BPM: 210
Notes: 349

1
口口口口 |----|
口口口口 |----|
口口口口 |----|
口口口口 |----|
2
口②①口 |--①-|
口④③口 |--②-|
口口口口 |--③-|
口口口口 |--④-|
3
口口口口 |----|
口口口口 |①---|
②口口① |----|
口口口口 |②---|
4
口口口口 |①---|
口⑤⑤口 |②---|
口④③口 |③---|
口②①口 |④-⑤-|
5
口口口口 |----|
②口口① |①---|
口口口口 |----|
口口口口 |②---|
6
③口口① |----|
口②②口 |①---|
口口口口 |②---|
口口口口 |--③-|
7
口口口口 |----|
①口口④ |①---|
口③②口 |②-③-|
口口口口 |--④-|
8
口口口口 |----|
口口口口 |①---|
口口口① |②-③-|
口②③口 |----|
9
口口口口 |①---|
①口口① |----|
口口口口 |----|
口口口口 |----|
10
口口口口 |----|
口口口口 |----|
口口口口 |----|
口口口口 |----|
11
口口口口 |①---|
口口口口 |②---|
口口口口 |③---|
①②③④ |④---|
12
口口口口 |①---|
口口口口 |②---|
①②③④ |③---|
口口口口 |④---|
13
口口口口 |----|
口口口口 |----|
口口口口 |----|
口口口口 |----|
14
口口口口 |----|
口口口口 |----|
口口口口 |----|
口①①口 |--①-|
15
口口口口 |----|
②口口口 |①---|
①③口口 |②---|
口口口口 |③---|
16
口口口口 |①---|
口①③口 |②---|
口口②④ |③---|
口⑤⑤口 |④-⑤-|
17
口口口口 |----|
②口口口 |①---|
①③口口 |②---|
口口口口 |③---|
18
口④⑤口 |①---|
口①③口 |②---|
口口②口 |③-④-|
口口口口 |--⑤-|
19
口口口口 |----|
口口③① |①---|
口口口② |②---|
口口口口 |③---|
20
口⑤⑤口 |①---|
④②口口 |②---|
口③①口 |③---|
口口口口 |④-⑤-|
21
口口口口 |----|
口口③① |①---|
口口口② |②---|
口口口口 |③---|
22
口口口口 |①---|
口②口口 |②---|
口③①口 |③-④-|
口⑤④口 |--⑤-|
23
口口口口 |----|
②口口口 |①---|
①③口口 |②---|
口口口口 |③---|
24
口口口口 |①---|
口①③口 |②---|
口口②④ |③---|
口⑤⑤口 |④-⑤-|
25
口口口口 |----|
②口口口 |①---|
①③口口 |②---|
口口口口 |③---|
26
口④⑤口 |①---|
口①③口 |②---|
口口②口 |③-④-|
口口口口 |--⑤-|
27
口口口口 |----|
①②口口 |--①-|
口口口口 |----|
口口口口 |--②-|
28
口口口口 |----|
②口口② |----|
口①①口 |①---|
口口口口 |--②-|
29
口口口口 |----|
②口口② |----|
口①①口 |①---|
口口口口 |--②-|
30
口①①口 |----|
口口口② |----|
口口口口 |①---|
口口口口 |--②-|
31
口口口口 |----|
②①口口 |----|
口口口口 |①---|
口口口口 |--②-|
32
口口口口 |----|
口口①口 |----|
口口口② |①---|
口口口口 |--②-|
33
口口口口 |----|
口口口口 |----|
②①口口 |①---|
口口口口 |--②-|
34
口口口口 |----|
口口口② |----|
口口①口 |①---|
口口口口 |--②-|
35
口口口口 |----|
②①口口 |----|
口口口口 |①---|
口口口口 |--②-|
36
口口口口 |----|
口口①口 |----|
口口口② |①---|
口口口口 |--②-|
37
口口口口 |----|
口口口口 |----|
②①口口 |①---|
口口口口 |--②-|
38
口口口口 |----|
口口口口 |----|
口口①口 |①---|
口口口口 |----|
39
口口口口 |①---|
①口口① |--②---|
②口口② |----③-|
③口口③ |----|
40
口③③口 |①---|
口②②口 |--②---|
口①①口 |----③-|
口口口口 |----|
41
①口口① |①---|
口③②口 |②---|
口口④口 |③---|
口口口口 |④---|
42
③口口③ |①---|
②口口② |--②-|
口①口口 |----|
口口口口 |③---|
43
口口①口 |①---|
口②口口 |②---|
口口③口 |③---|
口④口口 |④---|
44
③③③③ |①---|
口口口口 |----|
②口口② |②---|
①口口① |--③-|
45
口口口口 |----|
①②口口 |----|
口口口口 |①---|
口口口口 |②---|
46
口口口③ |①---|
口口①② |②---|
口口口口 |③---|
口口口口 |----|
47
口③③口 |①---|
口口②② |----|
口口①① |②---|
口口口口 |--③-|
48
口口口口 |----|
口口口口 |----|
①口口口 |----|
口口口口 |①---|
49
①③口口 |①---|
口口口口 |②---|
口②④口 |③---|
口口口口 |④---|
50
口口①③ |①---|
口口口口 |②---|
④口口② |③---|
口口口口 |④---|
51
口④④口 |①---|
口③②① |②---|
口口口口 |③---|
口口口口 |--④-|
52
①①①① |----|
口口口口 |----|
口口口口 |----|
口口口口 |--①-|
53
口口口口 |----|
①②口口 |----|
口口口口 |①---|
口口口口 |②---|
54
口口口③ |①---|
口口①② |②---|
口口口口 |③---|
口口口口 |----|
55
口③③口 |①---|
口口②② |----|
口口①① |②---|
口口口口 |--③-|
56
口口口口 |----|
口口口口 |--①-|
口①①口 |----|
口口口口 |----|
57
③口口口 |①---|
②口口口 |②---|
①口口口 |③---|
口口口口 |----|
58
口口口③ |①---|
口口口② |②---|
口口口① |③---|
口口口口 |----|
59
口③③口 |①---|
口②②口 |②---|
口①①口 |③---|
口口口口 |----|
60
①口口① |①---|
①口口① |----|
口口口口 |----|
口口口口 |----|
61
口口口口 |----|
口口口口 |----|
口口口口 |----|
口口口口 |----|
62
口口口口 |①---|
口①①口 |--②---|
口②②口 |----③-|
口③③口 |----|
63
③口口③ |①---|
②口口② |--②---|
①口口① |----③-|
口口口口 |----|
64
口①①口 |①---|
口口口口 |----|
口口口口 |----|
口口口口 |----|
65
口口口口 |----|
口口口口 |----|
口口口口 |----|
口口口口 |----|
66
口口口口 |①---|
口①口口 |----|
口口口口 |----|
口口口口 |----|
67
口口口口 |----|
口口口口 |----|
口口口口 |----|
口口口口 |----|
68
口口口口 |①---|
口口①口 |----|
口口口口 |----|
口口口口 |----|
69
口口口口 |----|
口口口口 |----|
口口口口 |----|
口口口口 |----|
70
口口口口 |①---|
口口口口 |----|
口①口口 |----|
口口口口 |----|
71
口口口口 |----|
口口口口 |----|
口口口口 |----|
口口口口 |----|
72
口口口口 |①---|
口口口口 |----|
口口口口 |----|
①口口① |----|
73
口口口口 |①---|
口口口口 |----|
①口口① |----|
口口口口 |----|
74
口口①口 |①---|
口口②口 |----|
口口口口 |②---|
口口口口 |----|
75
口口口口 |①---|
口口口口 |----|
口口①口 |②---|
口口②口 |----|
76
口口口口 |①---|
口口口口 |----|
口口口口 |----|
①口口① |----|
77
口口口口 |①---|
口口口口 |----|
①口口① |----|
口口口口 |----|
78
口①口口 |①---|
口②口口 |----|
口口口口 |②---|
口口口口 |----|
79
口口口口 |①---|
口口口口 |----|
口①口口 |②---|
口②口口 |----|
80
口口口口 |①---|
口口口口 |----|
口口口口 |----|
①口口①
81
口口口口 |①---|
口口口口 |----|
口①①口 |----|
口口口口
82
口口口口 |①---|
口①①口 |----|
口口口口 |----|
口口口口
83
口①①口 |①---|
口口口口 |----|
口口口口 |----|
口口口口
84
①口口① |①---|
口口口口 |----|
口口口口 |----|
口口口口
85
口口口口 |①---|
①口口① |----|
口口口口 |----|
口口口口
86
口口口口 |①---|
口②口口 |--②-|
①口③口 |----|
口口口口 |③---|
87
口口口口 |--①-|
口口口① |----|
口口口② |②---|
口口口口 |----|
88
口口④口 |①---|
口③口口 |②---|
口口②口 |③---|
口①口口 |④---|
89
①③③① |①---|
②口口② |----|
口口口口 |②---|
口口口口 |--③-|
90
口口口口 |----|
口①①口 |----|
口口口口 |----|
口口口口 |--①-|
91
口口口口 |----|
口口口口 |----|
口口口口 |----|
口口口口 |----|
92
口口口口 |①---|
②口口② |----|
口①①口 |----|
口口口口 |--②-|
93
口口口口 |----|
口口口口 |----|
①口口口 |----|
口口口口 |①---|
94
①③口口 |①---|
口口口口 |②---|
口②④口 |③---|
口口口口 |④---|
95
口口①③ |①---|
口口口口 |②---|
④口口② |③---|
口口口口 |④---|
96
口④④口 |①---|
口③②① |②---|
口口口口 |③---|
口口口口 |--④-|
97
①①①① |----|
口口口口 |----|
口口口口 |----|
口口口口 |--①-|
98
口口口口 |----|
①②口口 |----|
口口口口 |①---|
口口口口 |②---|
99
口口口③ |①---|
口口①② |②---|
口口口口 |③---|
口口口口 |----|
100
口③③口 |①---|
口口②② |----|
口口①① |②---|
口口口口 |--③-|
101
口口口口 |----|
口口口口 |--①-|
口①①口 |----|
口口口口 |----|
102
③口口口 |①---|
②口口口 |②---|
①口口口 |③---|
口口口口 |----|
103
口口口③ |①---|
口口口② |②---|
口口口① |③---|
口口口口 |----|
104
口③③口 |①---|
口②②口 |②---|
口①①口 |③---|
口口口口 |----|
105
①口口① |①---|
①口口① |----|
口口口口 |----|
口口口口 |----|
106
①①①① |①---|
②②②② |----|
口口口口 |②---|
口口口口 |----|
107
口口口口 |①---|
口口口口 |----|
①①①① |②---|
②②②② |----|
108
口口口口 |①---|
①①①① |----|
②②②② |②---|
口口口口 |----|
109
①①①① |①---|
口口口口 |----|
口口口口 |----|
口口口口 |----|

不確定度: 0

最終更新:2015年03月24日 20:43