乙女繚乱 舞い咲き誇れ
日向美ビタースイーツ♪

ADVANCED

Level: 7
BPM: 210
Notes: 565

1
口口口口 |----|
口口口口 |----|
口口口口 |----|
口口口口 |----|
2
⑦⑦口口 |--①-|
口⑤⑥口 |②-③-|
口③④口 |④-⑤-|
口①②口 |⑥-⑦-|
3
口口口口 |----|
口口口口 |----|
口口口口 |----|
口口口口 |----|
4
⑦⑦口口 |--①-|
口⑤⑥口 |②-③-|
口③④口 |④-⑤-|
口①②口 |⑥-⑦-|
5
口口口口 |----|
口口口口 |----|
口口口口 |----|
口口口口 |----|
6
口④口口 |----|
④口口口 |----|
口口口③ |①-②-|
口②口① |③-④-|
7
口⑤口口 |--①-|
⑤③①口 |②---|
口②④口 |③-④-|
口口口口 |--⑤-|
8
口口口口 |--①-|
口③①口 |②---|
口②④口 |③-④-|
口口口口 |----|
9
①①①① |①---|
口口口口 |----|
口口口口 |----|
口口口口 |----|
10
口口口口 |----|
口口口口 |----|
口口口口 |----|
口口口口 |----|
11
⑧口口⑦ |①-②-|
⑥口口⑤ |③-④-|
④口口③ |⑤-⑥-|
②口口① |⑦-⑧-|
12
口⑧⑦口 |①-②-|
口⑥⑤口 |③-④-|
口④③口 |⑤-⑥-|
口②①口 |⑦-⑧-|
13
口口口口 |----|
口口口口 |----|
口口口口 |----|
口口口口 |----|
14
口口口口 |----|
口口口口 |----|
口口口口 |----|
①①①① |--①-|
15
口口口口 |--①-|
①②⑤口 |②-③-|
⑦⑥③④ |④-⑤-|
口口口口 |⑥-⑦-|
16
口口口② |①---|
口口口① |②-③-|
口口口④ |④---|
③⑤⑤④ |--⑤-|
17
③④⑤⑥ |--①-|
口口①口 |②---|
口②口口 |③-④-|
口口口口 |⑤-⑥-|
18
口口口口 |--①-|
⑥②①⑤ |②-③-|
⑥④③⑤ |④-⑤-|
口口口口 |--⑥-|
19
⑦口口口 |--①-|
口③④口 |②-③-|
口⑤⑥口 |④-⑤-|
①口口② |⑥-⑦-|
20
口④口① |①---|
口④⑤口 |②-③-|
口口口③ |④---|
②口口口 |--⑤-|
21
口口④口 |①---|
口口口口 |②---|
口①③口 |③---|
口口②口 |--④-|
22
口口口口 |①---|
⑤①②⑥ |②-③-|
⑤③口⑥ |④-⑤-|
口口④口 |--⑥-|
23
口口口口 |--①-|
⑥①③口 |②-③-|
⑤④②⑦ |④-⑤-|
口口口口 |⑥-⑦-|
24
②口口口 |①---|
口口口① |②-③-|
口④⑤口 |④---|
口④口③ |--⑤-|
25
口口口④ |①-②-|
①②③口 |③---|
口⑤⑥口 |④---|
口口口口 |⑤-⑥-|
26
口口口口 |--①-|
⑥口口⑤ |②-③-|
⑥口口⑤ |④-⑤-|
④③②① |--⑥-|
27
口③④口 |--①-|
口②口口 |②-③-|
口①⑤口 |--④-|
口口口口 |--⑤-|
28
①口口② |--①-|
③口口④ |②-③-|
⑤口口⑥ |④-⑤-|
⑦口口口 |⑥-⑦-|
29
口④口口 |--①-|
口⑤③口 |②-③-|
口②口口 |④-⑤-|
口⑥①口 |--⑥-|
30
⑤口口口 |--①-|
口口③④ |②-③-|
①②口口 |④---|
口口口口 |--⑤-|
31
⑤口口口 |--①-|
口口口口 |②---|
口②①口 |③-④-|
口④③口 |--⑤-|
32
口⑤口口 |--①-|
口口口口 |②---|
口②①口 |③-④-|
口④③口 |--⑤-|
33
口口口口 |--①-|
③④②① |②---|
口口口口 |③-④-|
⑤口口⑤ |--⑤-|
34
口⑤口口 |--①-|
口口口口 |②-③-|
口②①口 |④---|
口④③口 |--⑤-|
35
口⑤口口 |--①-|
③④②① |②---|
口口口口 |③-④-|
口口口口 |--⑤-|
36
⑤口口口 |--①-|
③④②① |②---|
口口口口 |③-④-|
口口口口 |--⑤-|
37
口口口口 |--①-|
口口口口 |②---|
口②①口 |③-④-|
⑤④③⑤ |--⑤-|
38
口④③口 |--①-|
口②①口 |②-③-|
口口口口 |④---|
口口口口 |----|
39
①口③口 |①---|
①口③口 |--②---|
口②口口 |----③-|
口②口口 |----|
40
口口口② |①---|
口口口② |--②---|
口口③① |----③-|
口口③① |----|
41
口①①口 |①---|
口①①口 |②---|
口口口口 |③---|
②③④口 |④---|
42
口口口口 |①---|
口④⑤口 |②-③-|
口②③口 |--④-|
口口口① |⑤---|
43
⑦口口⑧ |①-②-|
⑤口口⑥ |③-④-|
③口口④ |⑤-⑥-|
①口口② |⑦-⑧-|
44
⑤⑤⑤⑤ |①--②|
口③③口 |--③-|
④②②④ |④---|
口①①口 |--⑤-|
45
口口⑦⑦ |--①-|
口口⑤④ |②-③-|
⑥①口口 |④-⑤-|
口③②口 |⑥-⑦-|
46
口口口口 |--①-|
口口口口 |②-③-|
口②①口 |④---|
口④③口 |----|
47
①②③口 |①---|
①②③口 |②---|
口④④口 |③---|
口⑤⑤口 |④-⑤-|
48
口口口口 |----|
口口口口 |----|
口②口口 |----|
①口口口 |①-②-|
49
⑤⑥口口 |①---|
口④①口 |②-③-|
口口③口 |④---|
口口口② |⑤-⑥-|
50
口口①口 |①---|
口口口口 |②-③-|
口口口口 |④---|
口④③② |----|
51
②口口① |①---|
⑤③③⑤ |②---|
⑤④④⑤ |③-④-|
①口口② |--⑤-|
52
①①①① |----|
口口口口 |----|
口口口口 |----|
口口口口 |--①-|
53
口口⑦⑦ |--①-|
口⑥⑤④ |②-③-|
口①口口 |④-⑤-|
口③②口 |⑥-⑦-|
54
口口口口 |--①-|
口口口口 |②-③-|
口②①口 |④---|
口④③口 |----|
55
⑤②①⑤ |①---|
②④④① |②---|
口③③口 |③-④-|
口口口口 |--⑤-|
56
口口口口 |--①-|
②口口② |--②-|
①口口① |----|
口口口口 |----|
57
口⑤口口 |①-②-|
⑤口口口 |③-④-|
口③口④ |⑤---|
①口②口 |----|
58
口口⑤口 |①-②-|
口口口⑤ |③-④-|
④口③口 |⑤---|
口②口① |----|
59
口口口口 |①-②-|
口②①口 |③-④-|
⑥④③⑥ |⑤---|
⑤口口⑤ |⑥---|
60
①口口① |①---|
口口口口 |----|
口口口口 |----|
口口口口 |----|
61
口①①口 |①---|
口口口口 |----|
口口口口 |----|
口口口口 |----|
62
①口③口 |①---|
①口③口 |--②---|
口②口口 |----③-|
口②口口 |----|
63
口口口② |①---|
口口口② |--②---|
口口③① |----③-|
口口③① |----|
64
口①①口 |①---|
口①①口 |----|
口口口口 |----|
口口口口 |----|
65
口口口口 |----|
口口口口 |----|
口口口口 |----|
口口口口 |----|
66
口口口口 |----|
口口口口 |----|
口口口口 |----|
口口口口 |----|
67
口口口口 |----|
口口口口 |----|
口口口口 |----|
口口口口 |----|
68
口口口口 |----|
口口口口 |----|
口口口口 |----|
口口口口 |----|
69
口口口口 |----|
口口口口 |----|
口口口口 |----|
口口口口 |----|
70
口口口口 |----|
口口口口 |----|
口口口口 |----|
口口口口 |----|
71
口口口口 |----|
口口口口 |----|
口口口口 |----|
口口口口 |----|
72
口口①口 |①---|
口②③口 |--②-|
口④口口 |③---|
口口口口 |--④-|
73
④口口⑤ |①---|
口口口口 |②-③-|
口口①口 |----|
口②③口 |④-⑤-|
74
口口口口 |①---|
①口口口 |②-③-|
口口③② |--④-|
④口口⑤ |--⑤-|
75
口口口④ |--①-|
③口口② |②-③-|
①口口口 |④---|
口口口口 |----|
76
口口①口 |①---|
口口②口 |----|
口③口口 |②---|
口口口口 |--③-|
77
④口口⑤ |①---|
口口口口 |②-③-|
口口①口 |----|
口②③口 |④-⑤-|
78
口②②口 |①---|
①口口口 |----|
口口口口 |②---|
口口口口 |----|
79
口口口口 |①-②-|
⑤口②① |③-④-|
④③口口 |⑤---|
口口口口 |----|
80
①口口① |①---|
口口口口 |----|
口口口口 |----|
口口口口
81
口口口口 |----|
口口口口 |①---|
口口②① |②---|
口口②①
82
口口口口 |①---|
口口③口 |②---|
②①口口 |--③-|
②①口口
83
②口口③ |①---|
口①口口 |----|
口口口口 |②-③-|
口口口口
84
口口口口 |①---|
①口②② |②---|
口口③③ |③---|
口口口口
85
口口口口 |①---|
口口口口 |----|
③口口口 |②-③-|
②口①①
86
口③②口 |①---|
①⑤④口 |②-③-|
口口口口 |--④-|
口口口口 |⑤---|
87
口口口口 |①-②-|
口口口⑤ |--③-|
口②①口 |④---|
口④③口 |⑤---|
88
①②③④ |①-②-|
⑤⑥⑦⑧ |③-④-|
口口口口 |⑤-⑥-|
口口口口 |⑦-⑧-|
89
⑤③③⑤ |①--②|
⑤口口⑤ |--③-|
④②②④ |④---|
口①①口 |--⑤-|
90
口②②口 |----|
口口口口 |----|
口①①口 |----|
口口口口 |①-②-|
91
口口口口 |----|
①①①① |----|
口口口口 |--①-|
②②②② |--②-|
92
口口口口 |①---|
口④⑤口 |②---|
①②③口 |③---|
口口口口 |④-⑤-|
93
口口口口 |----|
口口口口 |----|
口②口口 |----|
①口口口 |①-②-|
94
⑤⑥口口 |①---|
口④①口 |②-③-|
口口③口 |④---|
口口口② |⑤-⑥-|
95
口口①口 |①---|
口口口口 |②-③-|
口口口口 |④---|
口④③② |----|
96
②口口① |①---|
⑤③③⑤ |②---|
⑤④④⑤ |③-④-|
①口口② |--⑤-|
97
①①①① |----|
口口口口 |----|
口口口口 |----|
口口口口 |--①-|
98
口口⑦⑦ |--①-|
口⑥⑤④ |②-③-|
口①口口 |④-⑤-|
口③②口 |⑥-⑦-|
99
口口口口 |--①-|
口口口口 |②-③-|
口②①口 |④---|
口④③口 |----|
100
⑤②①⑤ |①---|
②④④① |②---|
口③③口 |③-④-|
口口口口 |--⑤-|
101
口口口口 |--①-|
②口口② |--②-|
①口口① |----|
口口口口 |----|
102
口⑤口口 |①-②-|
⑤口口口 |③-④-|
口③口④ |⑤---|
①口②口 |----|
103
口口⑤口 |①-②-|
口口口⑤ |③-④-|
④口③口 |⑤---|
口②口① |----|
104
口口口口 |①-②-|
口②①口 |③-④-|
⑥④③⑥ |⑤---|
⑤口口⑤ |⑥---|
105
①口口① |①---|
口口口口 |----|
口口口口 |----|
口口口口 |----|
106
①①①① |①---|
②口口③ |----|
口口口口 |②---|
③口口② |③---|
107
口①口口 |①---|
口②①口 |②---|
口③②口 |③---|
口口③口 |----|
108
⑥⑥⑤⑤ |①-②-|
口口口口 |③-④-|
④口口③ |⑤---|
②口口① |⑥---|
109
口口口口 |①---|
①口口① |----|
口口口口 |----|
口①①口 |----|

不確定度: 0

最終更新:2015年03月24日 20:43