Spanish Snowy Dance
Mutsuhiko Izumi

ADVANCED

Level: 7
BPM: 180
Notes: 496

1
口口口口 |----|
口口口口 |----|
口口口口 |----|
口口口口 |----|
2
①口口口 |①---|
口口③② |②-③-|
④⑤口口 |--④-|
口口口口 |⑤---|
3
口口口① |①---|
②③口口 |②-③-|
口口⑤④ |--④-|
口口口口 |⑤---|
4
①口口口 |①---|
口口③② |②-③-|
④⑤口口 |--④-|
口口口口 |⑤---|
5
口口口口 |①---|
口口口口 |②---|
口④③口 |③---|
口②①口 |④---|
6
②②①口 |①---|
口口口① |----|
口口口口 |----|
口口口口 |②---|
7
口口②② |①---|
口口口口 |----|
①①口口 |----|
口口口口 |②---|
8
②②口口 |①---|
口口口口 |----|
口口①① |----|
口口口口 |②---|
9
口口口口 |①---|
口口口口 |----|
①①口口
口口口口

口口口口
口口口口
口④口口 |--②-|
口②③口 |③-④-|
10
口口②③ |①---|
④口口口 |--②-|
⑤口①口 |③---④-|
口口口口 |--⑤---|
11
①口口口 |①---|
口口口口 |----|
口口④口 |--②-|
口③②口 |③-④-|
12
③②口口 |①---|
口口口④ |--②-|
口①口⑤ |③---④-|
口口口口 |--⑤---|
13
口口口口 |①---|
口口口口 |----|
口②②口 |----|
口口口① |②---|
14
口口口① |①---|
②③口口 |②-③-|
口口⑤④ |--④-|
口口口口 |⑤---|
15
口①①口 |①---|
口②②口 |--②-|
口口⑤口 |--③-|
口④③口 |④-⑤-|
16
口②③口 |①---|
口④口口 |----|
口①口口 |--②-|
口口口口 |③-④-|
17
口口口口 |①---|
口口①口 |--②-|
②⑤口② |--③-|
口③④口 |④-⑤-|
18
口口②③ |①---|
④口口口 |--②-|
⑤口①口 |③---④-|
口口口口 |--⑤---|
19
①口口口 |①---|
口口口口 |----|
口口④口 |--②-|
口③②口 |③-④-|
20
③②口口 |①---|
口口口④ |--②-|
口①口⑤ |③---④-|
口口口口 |--⑤---|
21
口口口口 |①---|
口口口口 |----|
口②②口 |----|
口口口① |②---|
22
口口口① |①---|
②③口口 |②-③-|
口口⑤④ |--④-|
口口口口 |⑤---|
23
口①①口 |①---|
口②②口 |--②-|
口口⑤口 |--③-|
口④③口 |④-⑤-|
24
口②③口 |①---|
口④口口 |----|
口①口口 |--②-|
口口口口 |③-④-|
25
②口口② |①---|
口口①口 |--②-|
口③③口 |----|
口口口口 |③---|
26
④口④口 |①---|
口①口① |②---|
口口口② |③---|
口口口③ |④---|
27
口口口口 |①---|
口①口① |②---|
口②口口 |③-④-|
⑤③④口 |⑤---|
28
口①口① |①---|
口②③口 |②-③-|
口②③口 |----|
④口④口 |④---|
29
口口口口 |①---|
①口口① |--②-|
②③③② |----|
口口口口 |③---|
30
④口④口 |①---|
口①口① |②---|
口口口② |③---|
口口口③ |④---|
31
口口口口 |①---|
口①口① |②---|
口②口口 |③---|
④③④口 |④---|
32
③口③口 |①---|
①口①口 |--②-|
口②口② |----|
口口口口 |③---|
33
口口口口 |①---|
①①①① |----|
口口口口 |----|
口口口口 |----|
34
口口口口 |①---|
口口③② |----|
口口③② |②---|
口①①口 |③---|
35
口口口口 |①---|
口①口口 |----|
口①口口 |----|
口口口口 |----|
36
口口口口 |①---|
②③口口 |----|
②③口口 |②---|
口①①口 |③---|
37
口口口口 |①---|
口口①口 |----|
口口①口 |----|
口②②口 |②---|
38
②口口① |①---|
口②①口 |②---|
口④③口 |③---|
④口口③ |④---|
39
口①②口 |①---|
②④③① |②---|
口④③口 |③---|
口口口口 |④---|
40
口口口口 |①---|
口④③口 |②---|
②④③① |③---|
口①②口 |④---|
41
②口口① |①---|
④口口③ |②---|
③口口④ |③---|
①口口② |④---|
42
②口④口 |①---|
口⑥口③ |--②-|
⑤①①口 |③-④-|
口口口口 |⑤-⑥-|
43
口口口口 |①-②-|
口口口口 |③---|
口⑤②口 |----|
口③④① |④-⑤-|
44
口③②① |①-②-③-|
口⑥⑤④ |④-⑤-⑥-|
口⑨⑧⑦ |⑦-⑧-⑨-|
口⑫⑪⑩ |⑩-⑪-⑫-|
45
口口口① |①---|
②③④口 |----|
口口口口 |----|
口口口口 |②-③-④-|
46
②③④口 |①---|
口口口① |----|
口口口口 |----|
口口口口 |②-③-④-|
47
口口口① |①---|
②口口口 |----|
口口口口 |②---|
口口口口 |----|
48
口口口口 |①---|
口口口口 |----|
口②①口 |②---|
口口口口 |----|
49
口④③口 |①-②-|
口②①口 |③-④-|
口⑦⑥⑤ |⑤-⑥-⑦-|
口⑩⑨⑧ |⑧-⑨-⑩-|
50
口②③① |①---|
口②③① |--②-|
口口口口 |③---|
口⑥⑤④ |④-⑤-⑥-|
51
口⑨⑧⑦ |①-②-③-|
口⑥⑤④ |④-⑤-⑥-|
口③②① |⑦-⑧-⑨-|
口⑫⑪⑩ |⑩-⑪-⑫-|
52
⑤⑥⑦口 |①---|
口口②口 |--②③|
①③④口 |④---|
①口口口 |⑤-⑥-⑦-|
53
⑩⑪⑫口 |①-②-③-|
①②③口 |④-⑤-⑥-|
④⑤⑥口 |⑦-⑧-⑨-|
⑦⑧⑨口 |⑩-⑪-⑫-|
54
④口口① |①---|
⑤②③① |--②-|
⑥②③口 |③---|
口口口口 |④-⑤-⑥-|
55
⑩④⑦① |①-②-③-|
⑪⑤⑧② |④-⑤-⑥-|
⑫⑥⑨③ |⑦-⑧-⑨-|
口口口口 |⑩-⑪-⑫-|
56
口⑥⑤④ |①-②-③-|
口⑫⑪⑩ |④-⑤-⑥-|
口⑨⑧⑦ |⑦-⑧-⑨-|
口③②① |⑩-⑪-⑫-|
57
口口口口 |①---|
口口口口 |----|
②③④⑤ |----|
口口口① |②③④⑤|
58
口口口口 |①---|
①口口口 |----|
⑤④③② |----|
口口口口 |②③④⑤|
59
口口口口 |①---|
口口口① |----|
口②③口 |----|
口口口口 |②-③-|
60
①口口口 |①--②|
口口⑥② |--③-|
③⑤口口 |④--⑤|
口口④口 |--⑥-|
61
①②③口 |①②③-|
口口口口 |----|
口口口口 |----|
口口口口 |----|
62
②口口① |①-②-|
③⑤口④ |③-④-|
口⑥口⑦ |⑤-⑥-|
口口口口 |⑦---|
63
①口口② |①-②-|
④口⑤③ |③-④-|
⑦口⑥口 |⑤-⑥-|
口口口口 |⑦---|
64
②②①① |①---|
口④③口 |--②-|
口口口口 |--③-|
口口口口 |④---|
65
⑩⑪⑫口 |①-②-③-|
⑦⑧⑨口 |④-⑤-⑥-|
④⑤⑥口 |⑦-⑧-⑨-|
①②③口 |⑩-⑪-⑫-|
66
口口口① |①---|
口口口① |--②③|
口口口口 |④---|
口④③② |----|
67
口口②③ |①---|
④口口口 |--②-|
⑤口①口 |③---④-|
口口口口 |--⑤---|
68
①口口口 |①---|
口口口口 |----|
口口④口 |--②-|
口③②口 |③-④-|
69
③②口口 |①---|
口口口④ |--②-|
口①口⑤ |③---④-|
口口口口 |--⑤---|
70
口口口口 |①---|
口口口口 |----|
口②②口 |----|
口口口① |②---|
71
口口口① |①---|
②③口口 |②-③-|
口口⑤④ |--④-|
口口口口 |⑤---|
72
口①①口 |①---|
口②②口 |--②-|
口口⑤口 |--③-|
口④③口 |④-⑤-|
73
口②③口 |①---|
口④口口 |----|
口①口口 |--②-|
口口口口 |③-④-|
74
口口口口 |①---|
口口①口 |--②-|
②⑤口② |--③-|
口③④口 |④-⑤-|
75
口口②③ |①---|
④口口口 |--②-|
⑤口①口 |③---④-|
口口口口 |--⑤---|
76
①口口口 |①---|
口口口口 |----|
口口④口 |--②-|
口③②口 |③-④-|
77
③②口口 |①---|
口口口④ |--②-|
口①口⑤ |③---④-|
口口口口 |--⑤---|
78
口口口口 |①---|
口口口口 |----|
口②②口 |②---|
口口口① |----|
79
口口口① |①---|
②③口口 |②-③-|
口口⑤④ |--④-|
口口口口 |⑤---|
80
口①①口 |①---|
口②②口 |--②-|
口口⑤口 |--③-|
口④③口 |④-⑤-|
81
口②③口 |①---|
口④口口 |----|
口①口口 |--②-|
口口口口 |③-④-|
82
②口口② |①---|
口口①口 |--②-|
口口口口 |----|
口口口口 |----|
83
口①②口 |①---|
①口口② |--②-|
口②①口 |----|
口口口口 |----|
84
②口②② |①---|
口口口口 |--②-|
口口口口 |----|
①①口① |----|
85
口口口口 |①---|
②②①① |--②-|
①①②② |----|
口口口口 |----|
86
口口口口 |----|
口口口口 |----|
口口口口 |----|
口口口口 |----|
87
②②①① |----|
口口口口 |----|
口口口口 |--①-|
口口③③ |②-③-|
88
口口④口 |①---|
口③口口 |--②③|
口口②口 |④---|
①①口口 |----|

不確定度: 0

最終更新:2015年03月23日 00:51