キモチコネクト
東雲心菜 meets 日向美ビタースイーツ♪

EXTREME

Level: 9
BPM: 150
Notes: 667

1
口口口口 |----|
口口口口 |----|
口口口口 |----|
口口口口 |----|
2
口口①口 |----|
口口②① |----|
口口口② |①---|
口口口口 |②---|
3
口口口口 |①---|
口口口口

口口

口③口口
③④口口 |②---|
④口口 |③---|
口口口 |④---|
4
口口口口 |①---|
口口口口

口口

口口口口
口口口④ |②---|
④③ |③---|
口③口 |④---|
5
口口 |①---|

口口口口
口口口口

口口口
口口口 |②---|
口口口口
口口口口


口口口⑤
④口口口 |③-④-|
口口口③ |⑤-⑥-|
6
口口口 |----|
口口口口 |①---|
口口口口 |②---|


口口口口
口③口口
口口口口
口口口 |--③-|
7
|①---|
口口口口 |②---|
口口口口
①②口口

口③口
口口口口
口口口口 |----|
口口口口 |③---|
8
|①-②-|
口②口口 |③-④-|
④④⑤⑤ |--⑤-|
口口③① |--⑥-|
9
④口口 |①---|
口⑤口口 |②---|
口口口口 |③---|
①②口口 |④-⑤-|
10
口口口 |①---|
口口口
口口口
口口口

口口口口
口④②口 |--②-|
口口口口 |③---|
口③口 |--④-|
11
口口口口 |①---|
口口口② |----|
③口口 |②---|
口口口 |--③-|
12
口口口口 |①---|
②口口口 |----|
口③ |②---|
口 |--③-|
13
口口口口 |①---|
口口口② |----|
③口口 |②---|
口 |--③-|
14
口口口口 |①---|
口口口口 |----|
口口 |----|
口 |----|
15
②口口① |①---|
①口口② |②---|
口口口口
口口

口口⑤口
口④③口
口③④口 |③-④-|
口⑤口口 |⑤---|
16
③⑤④口 |①-②-|
①口口② |③---|
②口口① |④---|
口④⑤③ |⑤---|
17
②口⑤① |①---|
①④③② |②---|
口③④口 |③-④-|
口⑤口口 |⑤---|
18
口口口③ |①-②-|
②口口① |③---|
①口口②
③口口口

⑤⑤口口
口④口口
⑤⑤④口 |④---|
口口口口 |⑤---|
19
口口 |①-②-|
③③口③ |③-④-|
口口口①
①①②口

⑦⑦
口口
⑤⑤⑥口 |⑤-⑥-|
口口口⑦ |⑦-⑧-|
20
口口口③ |①-②-|
③③口 |③-④-|
口口
①①②口

⑦⑦⑥口
口口⑦口
⑤⑤口 |⑤-⑥-|
口口口⑧ |⑦-⑧-|
21
口口 |①-②-|
③③口③ |③-④-|
口口口①
①①②口

⑦⑦
口口
⑤⑤⑥口 |⑤-⑥-|
口口口⑦ |⑦-⑧-|
22
口口口③ |①-②-|
③③口 |③-④-|
口口
①①②口

⑦⑦口口
口口⑦⑥
⑤⑤口 |⑤-⑥-|
口口口⑧ |⑦-⑧-|
23
口口①① |①-②-|
③②口口 |③-④-|
③③
①口口口

口口
口口⑤⑤
口口 |⑤-⑥-|
口⑥⑦⑦ |⑦-⑧-|
24
①① |①-②-|
口口 |③-④-|
口③③③
口口口口

口⑦口口
口⑤⑤
⑥口口口 |⑤-⑥-|
口⑧⑦⑦ |⑦-⑧-|
25
口口①① |①-②-|
③②口口 |③-④-|
③③
①口口口

口口
口口⑤⑤
口口 |⑤-⑥-|
口⑥⑦⑦ |⑦-⑧-|
26
①① |①-②-|
口口 |③-④-|
口③③③
口口口口

口⑦口口
口⑤⑤
⑥口口口 |⑤-⑥-|
口⑧⑦⑦ |⑦-⑧-|
27
口④③口 |①---|
②③④② |②---|
口①①口 |③---|
⑤口口口 |④-⑤-|
28
口口口 |①---|
口口口
口口口
口口口


口口口口 |--②-|
口口口口
口口口

口口口
口口③口
口口口口 |----|
口口口口 |--③-|
29
口口口 |①-②-|
口口口 |③-④-|
②③③
④口口

口口⑤⑤
⑥⑧口口
口口口口 |⑤-⑥-|
口⑦⑦ |⑦-⑧-|
30
口口⑤⑤ |①-②-|
⑥⑧①① |③-④-|
口②③③ |⑤-⑥-|
口④⑦⑦ |⑦-⑧-|
31
口④口③ |①---|
③口④口 |②---|
②①①② |③---|
口口口⑤ |④-⑤-|
32
|①---|
口口口口 |--②-|
口口口口
①口口口

口口口
口口口口
口口口口 |----|
③口口口 |③-|

口口口
口口口
口口口
口口口 |④-|
33
⑤⑤口口 |①-②-|
①①⑧⑥ |③-④-|
③③②口 |⑤-⑥-|
⑦⑦④ |⑦-⑧-|
34
⑤⑤口口 |①-②-|
①①⑧⑥ |③-④-|
③③②口 |⑤-⑥-|
⑦⑦④口 |⑦-⑧-|
35
②④③② |①---|
口③④口 |②---|
口①①口 |③---|
⑤口口口 |④-⑤-|
36
口口口口 |①---|
口口口
口口口
口口口


口口口口 |②-③-|
口②口口
口口口

口口口
口口⑤④
口口口口 |--④-|
口口口口 |--⑤-|
37
口口口 |①-②-|
口口口 |③-④-|
②③③
④口口

口口⑤⑤
⑥⑧口口
口口口口 |⑤-⑥-|
口⑦⑦ |⑦-⑧-|
38
口口⑤⑤ |①-②-|
⑥⑧①① |③-④-|
口②③③ |⑤-⑥-|
口④⑦⑦ |⑦-⑧-|
39
口⑦⑥口 |①-②-|
⑤口口⑤ |③-④-|
④②①③ |⑤-⑥-|
口口口口 |⑦---|
40
|①-②-|
口口口口 |③-④-|
③口口①
口③①口

口口口
口口⑤口
口口口口 |--⑤-|
口口口口

口口口
口口口
口口口
⑥口口 |⑥-⑦-|
41
⑤⑤口口 |①-②-|
①①⑧⑥ |③-④-|
③③②口 |⑤-⑥-|
⑦⑦④ |⑦-⑧-|
42
⑤⑤口口 |①-②-|
①①⑧⑥ |③-④-|
③③②口 |⑤-⑥-|
⑦⑦④口 |⑦-⑧-|
43
③⑦②① |①-②-|
口口⑥⑤ |③-④-|
⑧④②① |⑤-⑥-|
口口⑥⑤ |⑦-⑧-|
44
③口①① |①-②-|
口⑦⑥⑥ |③-④-|
口口②② |⑤-⑥-|
⑧④⑤⑤ |⑦-⑧-|
45
②②③⑦ |①-②-|
⑤⑤口口 |③-④-|
①①⑧④ |⑤-⑥-|
⑥⑥口口 |⑦-⑧-|
46
②②③⑧ |①-②-|
⑥⑥口口 |③-④-|
①①⑦口 |⑤-⑥-|
⑤⑤口④ |⑦-⑧-|
47
③口⑤⑥ |①-②-|
口⑦②① |③-④-|
口④⑥⑤ |⑤-⑥-|
⑧口①② |⑦-⑧-|
48
口③⑤⑥ |①-②-|
⑦口①② |③-④-|
④口⑥⑤ |⑤-⑥-|
口⑧②① |⑦-⑧-|
49
①①口口 |①---|
口口口
口口口
口口口

口口
口④口 |②-③-|
②②口 |④-⑤-|
⑤⑥口 |⑥---|
50
④①口⑤ |①-②-|
口口③口 |③---|
②③口 |④---|
⑤口口④ |⑤---|
51
口 |①---|




④口
口口口口 |②---|
口口口口 |③---|
口④③ |④---|
52
口口口口 |①---|


口口口口

口口③③
④④口 |②---|
口口口 |③---|
口口口口 |④---|
53
口口 |①---|
口口
口口
口口

口口口口
口口口口 |②---|
④口口口 |③-④-|
口③

口口
口⑤
口口
口口 |⑤-⑥-|
54
|----|
口口口 |①---|
口口 |②---|
口口

口口口口
口口③
口口口口
口口 |--③-|
55
口口 |①---|
口口 |----|
口口口
口口口

口口
口口口口
口口口 |----|
口口口口 |②---|
56
④⑥口⑦ |①-②-|
口口口③ |③-④-|
口口②口 |--⑤-|
⑤①口口 |⑥-⑦-|
57
口口口口 |①---|
③口口② |②-③-|
口口①口
口③②口

口口口口
口④④口
口⑤⑤口 |--④-|
口口口口 |--⑤-|
58
①口口② |----|
口口口口 |----|
口口口口 |①---|
②口口① |②---|
59
口 |①---|




④口
口口口口 |②---|
口口口口 |③---|
口④③ |④---|
60
口口口口 |①---|


口口口口

口口口③
口④口 |②---|
口⑤口 |③-④-|
口口口口 |⑤---|
61
口口 |①---|
口口
口口
口口

口口口口
口口口口 |②---|
④口口口 |③-④-|
口③

口口
口⑤
口口
口口 |⑤-⑥-|
62
|----|
口口口 |①---|
口口 |②---|
口口

口口口口
口口③
口口口口
口口 |--③-|
63
口口 |①---|
口口 |----|
口口口
口口口

口口
口口口口
口口口 |----|
口口口口 |②---|
64
④口口口 |①-②-|
口口口③ |③-④-|
口口②口
口①口口

口口⑤口
口⑥口口
口口⑦口 |--⑤-|
口口口口 |⑥-⑦-|
65
口口③口 |①---|
口口口③ |②-③-|
②口口口 |----|
口②口① |----|
66
口口口口 |①-②-|
①③②口 |③-④-|
④口④口
②③①口

口口口口
口口口口
口⑤口⑤ |--⑤-|
⑥口口口 |--⑥-|
67
口口 |①---|
口口
口口口口
口口口口

口口
②口口口 |--②-|
口口口口 |③---|
|----|
68
④①口口 |①---|
口口口口 |②-③-|
⑤②口口 |④---|
口口口 |⑤---|
69
②口⑤① |①---|
①④③② |②---|
口③④口 |③-④-|
口⑤ |⑤-⑥-|
70
口口口口 |①-②-|
口口口② |③-④-|
口口
③口口

口口口口
口⑥口口
口口⑦ |⑤-⑥-|
口口口⑧ |⑦-⑧-|
71
口③② |①---|
口⑤④ |②-③-|
口⑦⑥ |④-⑤-|
口口口 |⑥-⑦-|
72
口④口③ |①-②-|
口⑥口⑤ |③-④-|
口⑧口⑦ |⑤-⑥-|
口口②① |⑦-⑧-|
73
口口口③ |①-②-|
口口口④ |③-④-|
口口口口
口②口①

口口⑤口
口口⑥口
口口口⑦ |⑤-⑥-|
口口口⑧ |⑦-⑧-|
74
口口③③ |①-②-|
口④口⑤ |③---|
口⑥①⑦ |④-⑤-|
口②口 |⑥-⑦-|

不確定度: 0

最終更新:2015年12月18日 16:19