ツーマンライブ
東雲夏陽 meets 日向美ビタースイーツ♪

EXTREME

Level: 8
BPM: 174
Notes: 694

1
口口口口 |----|
口口口口 |----|
口口口口 |----|
口口口口 |----|
2
口口④口 |----|
口③口④ |----|
口口②口 |①-②-|
口①口口 |③-④-|
3
口①⑤⑤ |----|
①口口口 |①---|
口口口② |②-③-|
口④③口 |④-⑤-|
4
口口口口 |--①-|
①①口口 |----|
口口口口
口口口口

口⑤口口
⑤口④口
口③口口 |②-③-|
口口②口 |④-⑤-|
5
口口①口 |----|
⑤⑤口① |①---|
②口口口 |②-③-|
口③④口 |④-⑤-|
6
口口①① |--①-|
口④⑤口 |----|
口口③② |②-③-|
口口口口 |④-⑤-|
7
②③⑥⑥ |--①-|
口⑤口口 |--②-|
口口④口 |③-④-|
①口口① |⑤-⑥-|
8
口口口口 |--①-|
口口①① |--②-|
②口口口 |--③-|
②④③口 |④---|
9
③①①③ |①-②-|
⑦⑤⑤⑦ |③-④-|
②⑧⑧② |⑤-⑥-|
④⑥⑥④ |⑦-⑧-|
10
①口口① |①---|
口口口口 |----|
口口口口
口口口口

②②②②
口口口口
口口口口 |----|
口口口口 |--②-|
11
口口口⑤ |--①-|
②②③口 |②-③-|
④④口⑦ |④-⑤-|
⑥⑥口① |⑥-⑦-|
12
①①口口 |①-②-|
③③④口 |③-④-|
⑤⑤⑧口 |⑤-⑥-|
⑦⑦②⑥ |⑦-⑧-|
13
口口⑥① |----|
①①口口 |①-②-|
③③口④ |③-④-|
⑤⑤口② |⑤-⑥-|
14
①①口口 |①-②-|
③③口② |③-④-|
口口④口
口口口口

⑧⑧⑧⑧
口口口口
⑤⑤口口 |⑤-⑥-|
⑦⑦口⑥ |⑦-⑧-|
15
口口⑤⑤ |--①-|
口口④口 |②-③-|
②③口① |④-⑤-|
口口⑥⑥ |--⑥-|
16
⑤口④⑤ |--①-|
②③口① |②-③-|
口口口口 |④-⑤-|
⑥⑥⑥⑥ |--⑥-|
17
③③口口 |--①-|
⑥⑥②口 |②-③-|
口口①⑤ |--④-|
口口口④ |⑤-⑥-|
18
⑥⑥⑥⑥ |--①-|
口口口④ |②-③-|
③口②口 |④-⑤-|
口口①⑤ |--⑥-|
19
口口口口 |--①-|
②②口口 |②-③-|
口口①口
口口口③

口口口⑤
口口口口
④④⑦口 |④-⑤-|
⑥⑥口口 |⑥-⑦-|
20
①①口口 |①-②-|
③③口④ |③-④-|
⑤⑤⑥口 |⑤-⑥-|
⑦⑦②⑧ |⑦-⑧-|
21
口口⑥口 |----|
①①口① |①-②-|
③③②口 |③-④-|
⑤⑤口④ |⑤-⑥-|
22
①①口口 |①-②-|
③③口② |③-④-|
口口④口
口口口口

⑧⑧⑧⑧
口口口口
⑤⑤口口 |⑤-⑥-|
⑦⑦口⑥ |⑦-⑧-|
23
⑦口口口 |--①-|
口⑥②① |②-③-|
④③⑤口 |④-⑤-|
口口口口 |⑥-⑦-|
24
口口口口 |--①-|
口口口口 |②-③-|
口口口⑤ |④-⑤-|
④③②① |----|
25
口口口口 |①-②-|
①口口② |③-④-|
③口口④ |⑤-⑥-|
⑤⑦⑧⑥ |⑦-⑧-|
26
①③⑤⑦ |①-②-|
②④⑥⑧ |③-④-|
口口口口 |⑤-⑥-|
口口口口 |⑦-⑧-|
27
口⑥口口 |①---|
口口口口 |②-③-|
⑤①①④ |④-⑤-|
③口口② |--⑥-|
28
口口口口 |①-②-|
口口①口 |③-④-|
口②⑥口 |----|
口④③⑤ |⑤-⑥-|
29
口口④口 |①-②-|
口口口③ |③-④-|
口②口口
①口口口

口口口口
口⑤⑥口
口⑦口口 |--⑤-|
口口口口 |⑥-⑦-|
30
口口口口 |----|
①口口口 |----|
②口口② |----|
口口口① |①-②-|
31
口口口口 |----|
口①口③ |①-②-|
④②②④ |----|
③口①口 |③-④-|
32
口⑤④③ |----|
口口①口 |①-②-|
口②②口 |--③-|
口①口口 |④-⑤-|
33
口口口口 |--①-|
口口口口 |②-③-|
口②④⑥ |④-⑤-|
①③⑤⑦ |⑥-⑦-|
34
③⑦⑦④ |①-②-|
①⑥⑥② |③-④-|
口⑤⑤口 |⑤-⑥-|
口口口口 |⑦---|
35
口④口口 |①---|
②口⑤③ |②-③-|
②⑥口③ |--④-|
①口口① |⑤-⑥-|
36
口口口④ |①-②-|
③口口口 |③-④-|
口口⑥② |----|
①口口⑤ |⑤-⑥-|
37
口口④⑤ |①-②-|
⑥口口③ |③-④-|
口②口⑦ |--⑤-|
①口口口 |⑥-⑦-|
38
③口口口 |--①-|
口②②③ |--②-|
口①①口 |----|
口口口口 |--③-|
39
口②③① |①---|
①③②口 |②-③-|
口口口口
口口口口

口口口口
④口口⑤
⑤口口④ |----|
口口口口 |④-⑤-|
40
④③③口 |--①-|
口①②⑤ |②-③-|
⑥②①口 |--④-|
口口口口 |⑤-⑥-|
41
口口口口 |①-②-|
口口口口 |③-④-|
⑧⑦⑥⑤ |⑤-⑥-|
④③②① |⑦-⑧-|
42
口口口口 |①-②-|
④③②① |③-④-|
口⑥⑦口 |⑤-⑥-|
口⑧口⑤ |⑦-⑧-|
43
①口口⑧ |①-②-|
④②⑦口 |③-④-|
③⑤口口 |⑤-⑥-|
⑥口口口 |⑦-⑧-|
44
口口口口 |----|
②口口⑤ |①-②-|
口①口⑤ |--③-|
口④③口 |④-⑤-|
45
①口口⑧ |①-②-|
④②⑦口 |③-④-|
③⑤口口 |⑤-⑥-|
⑥口口口 |⑦-⑧-|
46
口口口口 |----|
④口口② |①-②-|
④口①口 |--③-|
口口③口 |④---|
47
口口口① |①-②-|
口口②④ |③-④-|
口口口③
口口口口

口口⑦⑧
口口口口
⑦⑧⑤口 |⑤-⑥-|
口口口⑥ |⑦-⑧-|
48
②①口口 |----|
口③④口 |①-②-|
口⑤②① |--③-|
口口口口 |④-⑤-|
49
②口口口 |①---|
①②口① |--②-|
③口口口 |③---|
口③口口 |----|
50
口口①口 |①---|
口口口① |----|
口口②口 |②---|
口口口② |----|
51
②①①⑤ |①---|
②口口⑤ |②-③-|
⑥④口③ |④---|
口④口口 |⑤-⑥-|
52
④④⑤口 |①-②-|
②口⑥口 |③-④-|
口口①③ |----|
口口①口 |⑤-⑥-|
53
④口口④ |①---|
③口口③ |②-③-|
口②①口 |--④-|
⑤口口⑤ |--⑤-|
54
口口①口 |----|
口口②口 |----|
口口口口 |①-②-|
口口口口 |----|
55
③⑦⑤① |①-②-|
④⑧⑥② |③-④-|
口口口口 |⑤-⑥-|
⑤①③⑦ |⑦-⑧-|
56
③口口① |①-②-|
④⑦⑦② |③-④-|
口⑦⑦口 |⑤-⑥-|
⑥①③⑤ |--⑦-|
57
⑤①②⑤ |--①-|
①口口② |②---|
③口口④ |③-④-|
口③④口 |--⑤-|
58
⑤⑤⑤⑤ |--①-|
①口口口 |②-③-|
④②口④ |④---|
口口③口 |--⑤-|
59
口口口⑥ |----|
口③⑥口 |①-②-|
口④⑤② |③-④-|
口口①① |⑤-⑥-|
60
⑤①口⑤ |--①-|
①口④口 |----|
②③口① |②-③-|
口口①口 |④-⑤-|
61
④⑤口口 |----|
口④口③ |①---|
②口③口 |②-③-|
①②⑤① |④-⑤-|
62
口口②① |--①-|
①口口口 |--②-|
口口口①
①口口口

⑥口口⑥
口③③口
口口④口 |③-④-|
口⑤⑤口 |⑤-⑥-|
63
⑥②①⑥ |--①-|
口③③口 |--②-|
口④口① |③-④-|
口⑤⑤口 |⑤-⑥-|
64
口①口口 |--①-|
口口口口 |--②-|
①③口③ |----|
②口口② |--③-|
65
⑤⑤④④ |①---|
③①③① |②-③-|
②口②口 |--④-|
④口口⑤ |--⑤-|
66
④④④④ |----|
口①①口 |----|
②③③② |①-②-|
口口口口 |③-④-|
67
口口口⑥ |----|
口③⑥口 |①-②-|
口④⑤② |③-④-|
口口①① |⑤-⑥-|
68
口①口口 |--①-|
①口④口 |----|
②③口① |②-③-|
⑤口①⑤ |④-⑤-|
69
①①①① |----|
口口②口 |①---|
口③⑤口 |②-③-|
口⑤④口 |④-⑤-|
70
口口口① |--①-|
①口口口 |----|
口口口①
①口口口

口口⑤口
口④口口
口②③⑤ |②-③-|
口口口口 |④-⑤-|
71
口①⑥口 |--①-|
口⑤④口 |--②-|
①③②⑥ |③-④-|
口口口口 |⑤-⑥-|
72
口①口口 |--①-|
口③③口 |--②-|
①口口口 |--③-|
④②②④ |④---|
73
①口口③ |①-②-|
②口口④ |③-④-|
⑥口口⑧ |⑤-⑥-|
⑤口口⑦ |⑦-⑧-|
74
口口口② |①-②-|
③①①④ |③-④-|
口①①口
口口口口

⑧⑧⑧⑧
口口口口
⑤口口⑥ |⑤-⑥-|
⑦口口口 |⑦-⑧-|
75
口口口⑤ |--①-|
②②①口 |②-③-|
④④口⑦ |④-⑤-|
⑥⑥口③ |⑥-⑦-|
76
①①口口 |①-②-|
③③④口 |③-④-|
⑤⑤⑧口 |⑤-⑥-|
⑦⑦②⑥ |⑦-⑧-|
77
口口口口 |----|
①①⑥口 |①-②-|
③③口① |③-④-|
⑤⑤④② |⑤-⑥-|
78
①①口口 |①-②-|
③③口④ |③-④-|
口口口②
口口口口

⑧⑧⑧⑧
口口口口
⑤⑤口口 |⑤-⑥-|
⑦⑦⑥口 |⑦-⑧-|
79
⑦口口口 |--①-|
口⑥②① |②-③-|
④③⑤口 |④-⑤-|
口口口口 |⑥-⑦-|
80
口口口口 |--①-|
口口口口 |②-③-|
口口口⑤ |④-⑤-|
④③②① |----|
81
①②口口 |①-②-|
③④口口 |③-④-|
⑤⑥口口 |⑤-⑥-|
⑦⑧口口 |⑦-⑧-|
82
口口①② |①-②-|
口口③④ |③-④-|
口口⑤⑥ |⑤-⑥-|
口口⑦⑧ |⑦-⑧-|

不確定度: 0

最終更新:2015年12月18日 16:15