I miss you baby / Wizard
加藤浩義

EXTREME

Level: 10
BPM: 135-145
Notes: 781

BPM: 135
1
口口口口 |----|
口口口口 |----|
口口口口 |----|
口口口口 |----|
2
口⑤口② |①-②-|
⑤口口口 |--③-|
③①①口 |④---|
口③口④ |⑤---|
3
口口口① |①---|
口口①口 |--②-|
口口口口 |----|
口口②② |----|
4
口口口口 |①---|
口②②口 |--②-|
口口口口 |----|
①①①① |----|
5
①①①① |①---|
口口口口 |--②-|
②口口② |----|
口口口口 |----|
6
口③③口 |①-②-|
②⑦⑦⑧ |③-④-|
⑥①①④ |⑤-⑥-|
口⑤⑤口 |⑦-⑧-|
7
口①①口 |①-②-|
②⑦⑦⑧ |③-④-|
⑥③③④ |⑤-⑥-|
口⑤⑤口 |⑦-⑧-|
8
口③③口 |①-②-|
②口口口 |③---|
口①①口
口口口口

口口口口
⑦⑥⑥口
口口口⑤ |④-⑤-|
口④④口 |⑥-⑦-|
9
口⑦③口 |①-②-|
口口⑥② |③---|
⑤①①口 |④-⑤-|
①④口① |⑥-⑦-|
10
口口口口 |①-②-|
②③④口 |③-④-|
口①①口
口④③②

口口口口
⑦口口⑧
⑤口口⑥ |⑤-⑥-|
口口口口 |⑦-⑧-|
11
口④③② |①-②-|
口口口口 |③-④-|
②③④口
口①①口

口口口口
口口口口
⑧口口⑦ |⑤-⑥-|
⑥口口⑤ |⑦-⑧-|
12
口①①口 |①-②-|
②③④口 |③-④-|
⑤口口⑤ |----|
口④③② |⑤---|
13
①口口① |①---|
口③③口 |--②-|
口口口口 |--③-|
口②②口 |----|
14
口口口口 |--①-|
口③②① |②-③-|
口口口口
①②③口

口口口口
⑦口口⑥
⑤口口④ |④-⑤-|
口口口口 |⑥-⑦-|
15
②③④口 |①-②-|
口口口口 |③-④-|
口④③②
口①①口

口口口口
口口口口
⑦口口⑧ |⑤-⑥-|
⑤口口⑥ |⑦-⑧-|
16
口①①口 |①-②-|
口④③② |③-④-|
⑤口口⑤ |----|
②③④口 |⑤---|
17
①口口① |①---|
②口口② |--②-|
口口口口 |----|
②口口② |----|
18
口口⑤口 |①-②-|
④口②⑤ |--③-|
口③口口 |④---|
①口④口 |⑤---|
19
口⑤口口 |①-②-|
⑤②口④ |--③-|
口口③口 |④---|
口④口① |⑤---|
20
口口口口 |①-②-|
口⑤②口 |--③-|
口③⑥口 |④-⑤-|
①口口④ |--⑥-|
21
口⑧⑥口 |①-②-|
口④②口 |③-④-|
⑤口口⑦ |⑤-⑥-|
①口口③ |⑦-⑧-|
22
口口口口 |①-②-|
①口口④ |③-④-|
口②③口
口口口口

口⑥⑤口
⑦口口口
⑩口口口 |⑤-⑥-|
口⑧口⑨ |⑦⑧⑨⑩|
23
④⑫⑤⑬ |①②③④|
⑩②⑪③ |⑤⑥⑦⑧|
口⑧①⑨ |⑨⑩⑪⑫|
⑥口⑦口 |⑬---|
24
①⑮⑧⑩ |①②③④|
⑬③⑫⑥ |⑤⑥⑦⑧|
⑤⑪④⑭ |⑨⑩⑪⑫|
⑨⑦⑯② |⑬⑭⑮⑯|
25
①⑮⑧⑩ |①②③④|
⑬③⑫⑥ |⑤⑥⑦⑧|
⑤⑪④⑭ |⑨⑩⑪⑫|
⑨⑦⑯② |⑬⑭⑮⑯|
26
①⑬⑤⑨ |①②③④|
⑮③⑪⑦ |⑤⑥⑦⑧|
⑧⑫④⑯ |⑨⑩⑪⑫|
⑩⑥⑭② |⑬⑭⑮⑯|
27
①⑬⑤⑨ |①②③④|
⑮③⑪⑦ |⑤⑥⑦⑧|
⑧⑫④⑯ |⑨⑩⑪⑫|
⑩⑥⑭② |⑬⑭⑮⑯|
28
①⑨②⑩ |①②③④|
⑪③⑫④ |⑤⑥⑦⑧|
⑤⑬⑥⑭ |⑨⑩⑪⑫|
⑮⑦⑯⑧ |⑬⑭⑮⑯|
29
①⑨②⑩ |①②③④|
⑪③⑫④ |⑤⑥⑦⑧|
⑤⑬⑥⑭ |⑨⑩⑪⑫|
⑮⑦⑯⑧ |⑬⑭⑮⑯|
30
⑦⑨⑧⑩ |①②③④|
⑪⑤⑫⑥ |⑤⑥⑦⑧|
③⑬④⑭ |⑨⑩⑪⑫|
⑮①⑯② |⑬⑭⑮⑯|
31
⑦⑮⑧⑯ |①②③④|
⑬⑤⑭⑥ |⑤⑥⑦⑧|
③⑪④⑫ |⑨⑩⑪⑫|
⑨①⑩② |⑬⑭⑮⑯|

BPM: 69.73
32
①口口口 |①---|
口口口①
①口口口
口口口①

BPM: 81.91
口口②口
②口口口 |②---|
口口口②
口②口口

BPM: 52.29
口③口口
口口口③
③口口口 |③---|
口口③口 |----|

BPM: 145
33
④②①③ |①--②|
①口口② |----|
④口口③ |③--④|
②③④① |----|
34
③②①④ |①--②|
①④③② |----|
口口口口 |③--④|
②④③① |----|
35
④②①③ |①--②|
口④③口 |----|
①②①② |③--④|
③口口④ |----|
36
口④③口 |①--②|
①口口② |----|
②③④① |③--④|
④①②③ |----|
37
口⑦⑥④ |①②③④|
①口①④ |----|
⑧⑤口⑤ |⑤⑥⑦⑧|
⑧②③口 |----|
38
④⑥⑦口 |①②③④|
④①口① |----|
⑤口⑤⑧ |⑤⑥⑦⑧|
口③②⑧ |----|
39
口⑦⑥④ |①②③④|
①口①④ |----|
⑧⑤口⑤ |⑤⑥⑦⑧|
⑧②③口 |----|
40
④⑥⑦口 |①②③④|
④①口① |----|
⑤口⑤⑧ |⑤⑥⑦⑧|
口③②⑧ |----|
41
口⑫⑪⑩ |①②③-|
①②③口 |④⑤⑥-|
口⑨⑧⑦ |⑦⑧⑨-|
④⑤⑥口 |⑩⑪⑫-|
42
口⑫⑪⑩ |①②③-|
①②③口 |④⑤⑥-|
口⑨⑧⑦ |⑦⑧⑨-|
④⑤⑥口 |⑩⑪⑫-|
43
口⑫⑪⑩ |①②③-|
⑦⑧⑨口 |④⑤⑥-|
口⑥⑤④ |⑦⑧⑨-|
①②③口 |⑩⑪⑫-|
44
口口口口 |①②③-|
⑥口口③ |④⑤⑥-|
⑤口口②
④口口①

⑦口⑦口
口口⑩⑨
口口口口 |⑦--⑧|
口⑧口⑧ |--⑨⑩|
45
⑥①⑦⑫ |①②③④|
②③⑨⑧ |⑤-⑥-|
⑪①⑦⑤ |⑦⑧⑨⑩|
④⑩④⑩ |⑪-⑫-|
46
⑥①⑦⑫ |①②③④|
②③⑨⑧ |⑤-⑥-|
⑪①⑦⑤ |⑦⑧⑨⑩|
④⑩④⑩ |⑪-⑫-|
47
⑥①⑦⑫ |①②③④|
②③⑨⑧ |⑤-⑥-|
⑪①⑦⑤ |⑦⑧⑨⑩|
④⑩④⑩ |⑪-⑫-|
48
⑥①口口 |①②③④|
②③口口 |⑤-⑥-|
口①口⑤
④口④口

口口⑦口
口口⑨⑧
⑪口⑦⑫ |⑦⑧⑨⑩|
口⑩口⑩ |⑪-⑫-|
49
⑦①⑦① |①②③④|
②⑤⑪⑧ |⑤-⑥-|
⑥③⑨⑫ |⑦⑧⑨⑩|
④⑩④⑩ |⑪-⑫-|
50
⑦①⑦① |①②③④|
②⑤⑪⑧ |⑤-⑥-|
⑥③⑨⑫ |⑦⑧⑨⑩|
④⑩④⑩ |⑪-⑫-|
51
⑦①⑦① |①②③④|
②⑤⑪⑧ |⑤-⑥-|
⑥③⑨⑫ |⑦⑧⑨⑩|
④⑩④⑩ |⑪-⑫-|
52
口①口① |①②③④|
②⑤口口 |⑤-⑥-|
⑥③口口
④口④口

⑦⑨⑦⑨
口口口口
口口口口 |⑦--⑧|
口⑧口⑧ |--⑨-|
53
③口④口 |①②③-|
口②④口 |④--⑤|
口①①口
口口口⑤

⑦口口口
口口口口
口口口口 |--⑥-|
⑥口口口 |-⑦--|
54
口④口③ |①②③-|
口④②⑦ |④-⑤-|
⑤①①口 |⑥--⑦|
⑧口⑥口 |--⑧-|
55
③口④口 |①②③-|
口②④口 |④--⑤|
口①①口
口口口⑤

⑦口口口
口口口口
口口口口 |--⑥-|
⑥口口口 |-⑦--|
56
口④口③ |①②③-|
口④②⑦ |④-⑤-|
⑤①①口 |⑥--⑦|
⑧口⑥口 |--⑧-|
57
③口④口 |①②③-|
口②④口 |④--⑤|
口①①口
口口口⑤

⑦口口口
口口口口
口口口口 |--⑥-|
⑥口口口 |-⑦--|
58
口④口③ |①②③-|
口④②⑦ |④-⑤-|
⑤①①口 |⑥--⑦|
⑧口⑥口 |--⑧-|
59
③口④口 |①②③-|
口②④口 |④--⑤|
口①①口
口口口⑤

⑦口口口
口口口口
口口口口 |--⑥-|
⑥口口口 |-⑦--|
60
⑫⑬⑭⑮ |①②③④|
④③②① |⑤⑥⑦⑧|
口⑪⑩⑨ |⑨⑩⑪-|
⑧⑦⑥⑤ |⑫⑬⑭⑮|
61
口口口口 |①--②|
①④①④ |--③-|
口⑥③口 |④--⑤|
⑤②⑤② |--⑥-|
62
口⑤口⑤ |①--②|
①④①④ |----|
③口③口 |③--④|
口②口② |--⑤-|
63
②⑤②⑤ |①--②|
口③⑥口 |--③-|
④①④① |④--⑤|
口口口口 |--⑥-|
64
②口②口 |①--②|
口③口③ |----|
④①④① |③--④|
⑤口⑤口 |--⑤-|
65
口⑤口⑤ |①--②|
①口①口 |----|
口④口④ |③--④|
③②③② |--⑤-|
66
⑤口⑤口 |①--②|
口①口① |----|
④口④口 |③--④|
②③②③ |--⑤-|
67
⑥③⑥③ |①--②|
口口口口 |--③-|
⑤②⑤② |④--⑤|
①④①④ |--⑥-|
68
⑦③⑪③ |①--②|
口⑥口⑩ |--③-|
⑤②⑨② |④⑤⑥⑦|
①④①⑧ |⑧⑨⑩⑪|
69
口口口口 |①---|
①口①口 |----|
口①口① |----|
①口①口 |----|

不確定度: 0

最終更新:2015年05月01日 22:19