I'm so Happy
Ryu☆

ADVANCED

Level: 8
BPM: 181
Notes: 529

1
口口口口 |----|
口口口口 |----|
口口口口 |----|
口口口口 |----|
2
⑦⑦⑦⑦ |①-②-|
口③③口 |③---|
①口⑤② |④⑤⑥-|
④口口⑥ |⑦---|
3
⑦⑦⑦⑦ |①-②-|
口⑥⑥口 |③-④-|
①⑤⑤③ |⑤-⑥-|
口④②口 |⑦---|
4
口⑦⑧口 |①-②-|
②口口⑥ |③-④-|
①④口口 |⑤--⑥|
口③口⑤ |-⑦⑧-|
5
口口口口 |①--②|
口③④口 |-③④-|
口⑦⑧口 |⑤--⑥|
①⑥②⑤ |-⑦⑧-|
6
口⑦⑧口 |①-②-|
②口口④ |③-④-|
①口口③ |⑤--⑥|
⑥口口⑤ |-⑦⑧-|
7
②⑤⑤② |①---|
口口口口 |②---|
口①①口 |③-④-|
③口口④ |⑤---|
8
口⑦⑧口 |①-②-|
②口口⑥ |③-④-|
①④口口 |⑤--⑥|
口③口⑤ |-⑦⑧-|
9
③口口口 |①②-③|
口①②口 |-④⑤-|
口口口口
口④⑤口

口口口⑧
口⑨⑩口
口⑥⑦口 |⑥⑦-⑧|
口口口口 |-⑨⑩-|
10
口⑦⑧口 |①-②-|
②口口⑥ |③-④-|
①④口口 |⑤--⑥|
口③口⑤ |-⑦⑧-|
11
③口口口 |①②-③|
口①②口 |-④⑤-|
口口口口
口④⑤口

口口口⑧
口⑨⑩口
口⑥⑦口 |⑥⑦-⑧|
口口口口 |-⑨⑩-|
12
口③口口 |①---|
②口④② |②---|
口⑤口口 |--③-|
①口口① |④-⑤-|
13
口口口口 |①---|
④②口③ |②-③-|
①口口口 |--④-|
④口口③ |----|
14
口①口口 |----|
口口②口 |----|
口③口口 |--①-|
口口口口 |②-③-|
15
④口口③ |①---|
①②口口 |②-③-|
④口口③ |--④-|
口口口口 |----|
16
口口口口 |--①-|
口①②口 |②---|
口口口口 |----|
口口口口 |----|
17
口口口口 |①---|
④口口③ |②-③-|
①②口口 |--④-|
④口口③ |----|
18
口口口口 |①-②-|
口口口口 |----|
口口口口 |----|
口①②口 |----|
19
口口口③ |①---|
①②口口 |②---|
口口口③ |----|
口口口口 |③---|
20
①④③口 |①-②-|
口②⑤口 |③---|
①⑥③口 |--④-|
口口口口 |⑤-⑥-|
21
口口口口 |①-②-|
口⑤口⑥ |③-④-|
①⑦②⑧ |⑤-⑥-|
③口④口 |⑦-⑧-|
22
口⑥口口 |①-②-|
⑤口⑦口 |③-④-|
①⑧②口 |⑤-⑥-|
③口④口 |⑦-⑧-|
23
口口口口 |①-②-|
口⑤口⑥ |③-④-|
①⑦②⑧ |⑤-⑥-|
③口④口 |⑦-⑧-|
24
⑦⑤⑧⑥ |①-②-|
③口④口 |③-④-|
①口②口 |⑤-⑥-|
口口口口 |⑦-⑧-|
25
口④口⑧ |①-②-|
口③口⑦ |③-④-|
②口⑥口 |⑤-⑥-|
①口⑤口 |⑦-⑧-|
26
⑧⑥④口 |①-②-|
⑦⑤③口 |③-④-|
口口口② |⑤-⑥-|
口口口① |⑦-⑧-|
27
⑦口口⑧ |①-②-|
口⑤⑥口 |③-④-|
③口口④ |⑤-⑥-|
口①②口 |⑦-⑧-|
28
④口口④ |①---|
口③③口 |②---|
②口口② |③---|
口①①口 |④---|
29
口口口口 |①-②-|
③口口③ |③---|
③口口③
③①②③

⑤④④⑥
口④④口
口④④口 |④-⑤-|
口⑦口口 |⑥-⑦-|
30
口④③口 |①--②|
口口口⑤ |--③-|
②口口口 |④--⑤|
口⑥①口 |--⑥-|
31
口口③口 |①--②|
口④⑤口 |--③-|
②⑥⑦口 |④-⑤-|
口口①口 |⑥-⑦-|
32
口④③口 |①--②|
口口口⑤ |--③-|
②口口口 |④--⑤|
口⑥①口 |--⑥-|
33
口口③口 |①--②|
口⑤⑦口 |--③-|
②④⑥口 |④-⑤-|
口口①口 |⑥-⑦-|
34
口④③口 |①--②|
口口口⑤ |--③-|
②口口口 |④--⑤|
口⑥①口 |--⑥-|
35
口口③口 |①--②|
口④⑤口 |--③-|
②⑥⑦口 |④-⑤-|
口口①口 |⑥-⑦-|
36
口④③口 |①--②|
口口口⑤ |--③-|
②口口口 |④--⑤|
口⑥①口 |--⑥-|
37
口口③口 |①--②|
口④⑤口 |--③-|
②⑥⑦口 |④-⑤-|
口口①口 |⑥-⑦-|
38
口④③口 |①--②|
口口口⑤ |--③-|
②口口口 |④--⑤|
口⑥①口 |--⑥-|
39
口口③口 |①--②|
口④⑤口 |--③-|
②⑥⑦口 |④-⑤-|
口口①口 |⑥-⑦-|
40
口④③口 |①--②|
口口口⑤ |--③-|
②口口口 |④--⑤|
口⑥①口 |--⑥-|
41
口口③口 |①--②|
口⑤⑦口 |--③-|
②④⑥口 |④-⑤-|
口口①口 |⑥-⑦-|
42
口④③口 |①--②|
口口口⑤ |--③-|
②口口口 |④--⑤|
口⑥①口 |--⑥-|
43
口口③口 |①--②|
口④⑤口 |--③-|
②⑥⑦口 |④-⑤-|
口口①口 |⑥-⑦-|
44
口④③口 |①--②|
口口口⑤ |--③-|
②口口口 |④--⑤|
口⑥①口 |--⑥-|
45
口口③口 |①--②|
口口口口 |--③-|
②口口口
口口①口

口口口口
口④④口
口⑤⑤口 |④--⑤|
口⑥⑥口 |--⑥-|
46
①口口⑤ |①-②-|
②口口⑥ |③-④-|
③口口⑦ |⑤-⑥-|
④口口⑧ |⑦-⑧-|
47
口①⑤口 |①-②-|
口⑥②口 |③-④-|
口③⑦口 |--⑤-|
口口④口 |⑥-⑦-|
48
口口口口 |①---|
口口口口 |----|
口②②口 |----|
①口口① |②---|
49
口④④口 |①---|
①②②① |②---|
口口口口 |③---|
③口口③ |④---|
50
口⑦⑦口 |①-②-|
①⑦⑦② |③-④-|
③⑦⑦④ |⑤-⑥-|
⑤口口⑥ |⑦---|
51
口⑦⑦口 |①-②-|
①⑦⑦② |③-④-|
③⑦⑦④ |⑤-⑥-|
⑤口口⑥ |⑦---|
52
①口口② |①-②-|
③口口④ |③-④-|
⑤口口⑥ |⑤-⑥-|
⑦口口⑧ |⑦-⑧-|
53
口③③口 |①---|
口①①口 |②---|
口②②口 |③---|
口④④口 |④---|
54
口口口口 |①---|
④②口③ |②-③-|
①口口口 |--④-|
④口口③ |----|
55
①口口② |①-②-|
口口口口 |③-④-|
③口口④ |----|
口③④口 |----|
56
口⑤口⑧ |①-②-|
⑦①④⑥ |③-④-|
口③②⑧ |⑤-⑥-|
口口口口 |⑦-⑧-|
57
口口口⑥ |--①-|
⑤①口④ |②-③-|
口口②⑥ |④-⑤-|
口③口口 |⑥---|
58
口⑤口⑧ |①-②-|
⑦①④⑥ |③-④-|
口③②⑧ |⑤-⑥-|
口口口口 |⑦-⑧-|
59
口④②口 |--①-|
口①③⑤ |②-③-|
⑥口口口 |④-⑤-|
口口口⑦ |⑥-⑦-|
60
口⑤口⑧ |①-②-|
⑦①④⑥ |③-④-|
口③②⑧ |⑤-⑥-|
口口口口 |⑦-⑧-|
61
口口口⑥ |--①-|
⑤①口④ |②-③-|
口口②⑥ |④-⑤-|
口③口口 |⑥---|
62
口⑤⑧口 |①-②-|
口①④口 |③-④-|
口③②口 |⑤-⑥-|
口⑦⑥口 |⑦-⑧-|
63
①口口② |①-②-|
⑤口口⑤ |③-④-|
口口口口 |⑤---|
③口口④ |----|
64
口⑤口⑧ |①-②-|
⑦①④⑥ |③-④-|
口③②⑧ |⑤-⑥-|
口口口口 |⑦-⑧-|
65
口口口⑥ |--①-|
⑤①口④ |②-③-|
口口②⑥ |④-⑤-|
口③口口 |⑥---|
66
口⑤口⑧ |①-②-|
⑦①④⑥ |③-④-|
口③②⑧ |⑤-⑥-|
口口口口 |⑦-⑧-|
67
口④②口 |--①-|
口①③⑤ |②-③-|
⑥口口口 |④-⑤-|
口口口⑦ |⑥-⑦-|
68
口⑤口⑧ |①-②-|
⑦①④⑥ |③-④-|
口③②⑧ |⑤-⑥-|
口口口口 |⑦-⑧-|
69
口口口⑥ |--①-|
⑤①口④ |②-③-|
口口②⑥ |④-⑤-|
口③口口 |⑥---|
70
口⑤⑧口 |①-②-|
口①④口 |③-④-|
口③②口 |⑤-⑥-|
口⑦⑥口 |⑦-⑧-|
71
①口口② |①-②-|
⑤口口⑤ |③-④-|
口⑥⑥口 |⑤---|
③口口④ |⑥---|
72
口①①口 |①---|
口口口口 |----|
口口口口 |----|
口口口口 |----|


不确定度: 0

タグ:

+ タグ編集
  • タグ:

このサイトはreCAPTCHAによって保護されており、Googleの プライバシーポリシー利用規約 が適用されます。

最終更新:2012年11月10日 13:52