Dragon Night
SEKAI NO OWARI

EXTREME

Level: 8
BPM: 124
Notes: 636

1
口口口口 |----|
口口口口 |----|
口口口口 |----|
口口口口 |----|
2
口口口口 |----|
口口口口 |----|
口口口口 |----|
口口口口 |----|
3
口口口口 |----|
口口口口 |----|
口口口口 |----|
①口口口 |---①|
4
口⑨口口 |①-②③|
⑧⑦⑤③ |--④⑤|
口①②④ |--⑥-|
口口口⑥ |⑦-⑧⑨|
5
口口口① |--①-|
口口口口 |②-③④|
③②口口 |----|
⑤④口口 |---⑤|
6
口⑥口⑤ |①-②-|
⑦⑧口④ |③-④-|
⑨①口③ |⑤-⑥⑦|
口口口② |-⑧⑨-|
7
①口②口 |①-②③|
口口口③ |-④--|
口④口口
口口口口

口口口口
⑥口口⑥
口口口口 |⑤---|
口口口⑤ |⑥---|
8
口口口口 |①-②③|
口口口⑤ |--④⑤|
①③④①
②口口口

⑨口口口
口⑧⑦口
口口口⑥ |--⑥⑦|
口口口口 |--⑧⑨|
9
口①①口 |--①②|
③口口② |③④⑤⑥|
⑤口口④
口⑥⑥口

口口口口
口口口口
⑦口口口 |----|
口口口口 |---⑦|
10
④口口③ |①-②③|
口①②⑤ |--④-|
⑨⑥口⑦ |⑤-⑥-|
口口⑧口 |⑦⑧-⑨|
11
口口口② |①-②-|
口①口③ |③④⑤⑥|
口口④口
⑥⑤口口

⑦口⑦口
⑦⑦⑦口
⑦口⑦口 |----|
口口口口 |--⑦-|
12
口口口口 |----|
口口口口 |----|
口口口口 |----|
口口口口 |----|
13
口④口口 |--①-|
②口⑥口 |②-③-|
口③口⑦ |④-⑤-|
①口⑤口 |⑥-⑦-|
14
口口口口 |①-②③|
③⑤口口 |--④⑤|
④②口口
口口口①

口口⑦口
⑧口口⑥
口⑨口口 |--⑥⑦|
口口口口 |--⑧⑨|
15
口口口口 |--①②|
口口口口 |--③④|
①口口③ |----|
口②④⑤ |---⑤|
16
口口口⑤ |①-②-|
③口④口 |③-④⑤|
②口①口
口口口口

口⑥口口
口⑦口⑧
口口⑨口 |--⑥-|
口口口口 |⑦-⑧⑨|
17
⑧口口⑧ |-①②-|
⑥⑦⑦口 |③④⑤⑥|
①⑤口④ |⑦---|
口②③口 |⑧---|
18
口口口口 |①-②③|
①口口① |--④⑤|
②口口⑤
口③④口

口⑧⑦口
⑨口口⑥
口口口口 |--⑥⑦|
口口口口 |--⑧⑨|
19
口口口口 |--①②|
口口口口 |--③④|
①口口④ |----|
口②③⑤ |---⑤|
20
⑤口④⑧ |①-②③|
③⑦⑨口 |--④-|
口②①口 |⑤-⑥-|
口口⑥口 |⑦-⑧⑨|
21
口口口口 |--①②|
口口口① |--③④|
口口②③
口口④口

⑤口口口
口口口口
⑤口⑥口 |----|
口口口⑦ |⑤-⑥⑦|
22
⑥①口① |----|
口⑤口④ |①-②③|
口②口口 |----|
③口口④ |④-⑤⑥|
23
④口口③ |----|
口口②口 |①-②③|
④口⑤口 |----|
①口①⑥ |④-⑤⑥|
24
⑨口口⑧ |-①-②|
⑦①⑥口 |③④⑤⑥|
⑨⑤口④ |⑦⑧--|
③①②口 |--⑨-|
25
口②口口 |①-②-|
口④③① |③-④-|
口②口口
口④③①

口口⑤⑧
⑥口⑦口
口口⑤口 |⑤---|
⑥口口口 |⑥-⑦⑧|
26
①口①④ |----|
口口口口 |①-②③|
口⑤②④ |----|
⑥口口③ |④-⑤⑥|
27
③口口⑥ |----|
④②⑤口 |①-②③|
口口口口 |----|
④①口① |④-⑤⑥|
28
③①②⑨ |-①-②|
口⑤口④ |③④⑤⑥|
⑦①⑥⑨ |⑦⑧--|
口口口⑧ |--⑨-|
29
口④②口 |①-②-|
①③④口 |③-④-|
口④②口
①③④口

⑥口⑦⑤
⑤口口口
⑧口⑨⑤ |--⑤-|
⑤口口口 |⑥⑦⑧⑨|
30
⑤⑧⑦⑥ |①-②-|
口①②④ |--③④|
口⑧⑦⑥ |⑤-⑥-|
③①②口 |⑦-⑧-|
31
口口口④ |--①-|
①②③⑤ |--②-|
口口口⑥ |--③-|
①②③⑦ |④⑤⑥⑦|
32
②①口口 |①-②-|
口口口口 |--③④|
②①口④
③口口口

⑧口⑥口
⑤⑦口口
⑧口⑥口 |⑤-⑥-|
口⑦口口 |⑦-⑧-|
33
④口口① |--①-|
口⑥③⑤ |--②③|
口②口① |④-⑤-|
⑦口口⑤ |-⑥⑦-|
34
⑤①⑦口 |①-②-|
口⑧②⑥ |--③④|
③①⑦④ |⑤-⑥-|
口⑧②⑥ |⑦-⑧-|
35
④口③口 |--①-|
⑤口①② |--②-|
⑥口③口 |--③-|
⑦口①② |④⑤⑥⑦|
36
口口口② |①-②-|
口口①口 |--③④|
④口口②
口口①③

口⑥口⑧
口口⑦⑤
口⑥口⑧ |⑤-⑥-|
口口⑦口 |⑦-⑧-|
37
⑤②①④ |①---|
⑥①③口 |--②-|
⑦②①④ |③-④-|
⑧①③口 |⑤⑥⑦⑧|
38
口④⑤口 |①-②③|
口①口口 |-④-⑤|
口④⑤③
口①②口

⑥口口⑧
⑩⑨⑦口
⑥口口口 |⑥-⑦⑧|
⑩⑨口口 |-⑨-⑩|
39
④口⑤口 |①-②③|
口口口① |-④-⑤|
④③⑤口
口口②①

口⑩口⑧
⑨⑥⑦口
口⑩口口 |⑥-⑦⑧|
⑨⑥口口 |-⑨-⑩|
40
①⑨②⑩ |①②③④|
⑪③⑫④ |⑤⑥⑦⑧|
⑤⑬⑥⑭ |⑨⑩⑪⑫|
口⑦⑮⑧ |⑬⑭-⑮|
41
①口②口 |①②③④|
⑨③⑩④ |⑤⑥⑦⑧|
⑤⑪⑥⑫ |⑨⑩⑪⑫|
口⑦⑬⑧ |⑬---|
42
①①口口 |①②-③|
②②口口 |--④⑤|
口口④④
③③⑤⑤

口口⑥⑥
口口⑦⑦
⑧⑧口口 |-⑥⑦-|
⑨⑨口口 |⑧-⑨-|
43
①①⑤⑤ |①②-③|
②②⑥⑥ |④-⑤⑥|
口口③③
口口④④

口口口口
口口口口
⑦⑦⑨⑨ |-⑦⑧-|
⑧⑧⑩⑩ |⑨-⑩-|
44
口口口口 |①---|
①①①① |----|
口口口口 |----|
口口口口 |----|
45
①口口口 |----|
①口口② |----|
①口口口 |----|
口口③口 |①-②③|
46
口②②② |①---|
口③口口 |②-③④|
口①口口
④①口口

口⑧口口
口口口⑥
⑦口⑤⑥ |⑤---|
口口⑤⑥ |⑥-⑦⑧|
47
口口①④ |①---|
口口①口 |②-③④|
口口③口
②②②口

⑥⑤口口
⑥⑤口⑦
⑥口口口 |⑤---|
口口⑧口 |⑥-⑦⑧|
48
口③②口 |-①-②|
④口口口 |③④⑤⑥|
⑤①①口
口⑥口口

⑨口口口
口口口口
口⑨口⑧ |⑦⑧--|
口口⑦口 |--⑨-|
49
口①④③ |①-②-|
②②口口 |③-④-|
①口③④
口口口口

口口口⑦
⑥口⑤⑤
⑥口⑧口 |⑤---|
⑥口口口 |⑥-⑦⑧|
50
②②②⑥ |①---|
⑤⑧④⑥ |②-③④|
⑤①口⑥ |⑤---|
⑦①口③ |⑥-⑦⑧|
51
③口①⑦ |①---|
⑥口①⑤ |②-③④|
⑥④⑧⑤ |⑤---|
⑥②②② |⑥-⑦⑧|
52
①①②⑨ |-①-②|
⑧口口③ |③④⑤⑥|
⑦口⑨④ |⑦⑧--|
口⑥⑤口 |--⑨-|
53
口口①口 |①---|
口口口口 |----|
口口口①
口口口口

②口口③
③口口②
②口口③ |②---|
③口口② |③---|
54
口②口口 |①-②-|
口①①口 |--③④|
口②口④
③①①口

⑧⑦⑥口
⑤口口口
⑧⑦⑥口 |⑤-⑥-|
口口口口 |⑦-⑧-|
55
口口口④ |--①-|
①②③⑤ |--②-|
口口口⑥ |--③-|
①②③⑦ |④⑤⑥⑦|
56
⑤②①口 |①-②-|
⑧⑦⑥④ |--③④|
③②①口 |⑤-⑥-|
⑧⑦⑥口 |⑦-⑧-|
57
口口①口 |--①-|
口口口口 |--②③|
③口①口
口口口②

口口⑥④
口⑤口口
口⑦口口 |④-⑤-|
口⑤口口 |-⑥⑦-|
58
口口口口 |①-②-|
④口①② |--③④|
口口③口
口口①②

口⑥⑤⑧
口口⑦口
口⑥口⑧ |⑤-⑥-|
口口⑦口 |⑦-⑧-|
59
④②③口 |--①-|
⑤①口口 |--②-|
⑥②③口 |--③-|
⑦①口口 |④⑤⑥⑦|
60
⑥①⑧⑤ |①-②-|
④⑦②口 |--③④|
⑥①⑧口 |⑤-⑥-|
口⑦②③ |⑦-⑧-|
61
口①口口 |①---|
②口口口 |--②-|
口①口口
②口口口

口④⑤③
口⑥④口
口④⑦③ |③-④-|
口⑧④口 |⑤⑥⑦⑧|
62
①口口口 |①---|
口口口① |----|
①口口口 |----|
口口口① |----|

不確定度: 0

最終更新:2016年04月11日 21:58