Ausretious#1-まどろみ、或いは嘆色の夢-
EOOZ

EXTREME

Level: 10
BPM: 168
Notes: 850

1
①口口口 |--①-|
③口口口 |--②-|
口④口口 |③---|
⑤②口口 |④-⑤-|
2
口口口② |①---|
口口③口 |②---|
口口口口 |③---|
④口口① |④---|
3
口④口口 |①---|
口口口③ |②---|
口口口② |③---|
口口①口 |④---|
4
口口④口 |①---|
③口口口 |②---|
②口口口 |③---|
口①口口 |④---|
5
②①口② |①-②-|
④⑤⑤④ |--③-|
⑥口口⑥ |④---|
口③③口 |⑤-⑥-|
6
①③②口 |①-②-|
④口口口 |③-④-|
口①口口
④口口口

口口⑧⑦
口口口口
口口⑧⑦ |⑤-⑥-|
口⑥⑤口 |⑦-⑧-|
7
口④口口 |①-②-|
④①口② |③-④-|
①③口口
口口口口

口口口⑧
口口⑦⑨
口口⑧口 |⑤-⑥-|
口⑥⑤⑦ |⑦-⑧⑨|
8
口③②口 |①-②-|
④①口口 |③-④-|
口④口口
①口口口

口口⑧口
口口口⑦
口口⑧⑦ |⑤-⑥-|
口⑥⑤口 |⑦-⑧-|
9
②口口② |①-②-|
⑦⑤⑤⑦ |③-④-|
①⑧⑧口 |⑤-⑥-|
④⑥③④ |⑦-⑧-|
10
①口口② |①-②-|
口③口口 |③-④-|
①口口口
④④口④

口口口口
口口⑦口
⑦⑦口⑥ |--⑤-|
口口⑤口 |⑥-⑦-|
11
①①口口 |①---|
⑥②口⑤ |②-③-|
口⑦③口 |--④-|
口口④口 |⑤-⑥⑦|
12
口⑥②口 |①---|
⑤③口口 |②-③-|
口口⑦口 |④-⑤-|
①口④④ |⑥-⑦-|
13
⑨⑬⑥② |①②③④|
⑪⑮⑧④ |⑤⑥⑦⑧|
③⑦⑯⑫ |⑨⑩⑪⑫|
①⑤⑭⑩ |⑬⑭⑮⑯|
14
口口⑥④ |①-②-|
口⑧③② |③-④-|
①⑤口⑤ |⑤-⑥-|
③⑦口⑦ |⑦-⑧-|
15
⑧⑥口口 |①-②-|
口口⑤① |③-④-|
①⑤②④ |⑤-⑥-|
③⑦③⑦ |⑦-⑧-|
16
口⑧⑦① |①-②-|
口②口⑥ |③-④-|
①⑤⑤④ |⑤-⑥-|
③⑦③口 |⑦-⑧-|
17
⑧口口① |①-②-|
口⑥②口 |③-④-|
①⑤④⑤ |⑤-⑥-|
③⑦⑦③ |⑦-⑧-|
18
口口②⑦ |①---|
⑥口口口 |②-③④|
口④③口 |⑤-⑥-|
①口⑤口 |⑦---|
19
口①①口 |①---|
口①①口 |----|
①口②① |②---|
口口口口
20
口口口口 |①-②-|
口口口③ |③---|
口口口口
口①口②
21
①口口口 |①---|
口口②口 |----|
口口口口 |②-③-|
口口口③
22
口口口口 |①---|
口口口口 |--②-|
口①口口
②口口口
23
口口口口 |①---|
口①①口 |----|
口口口口 |②---|
口口②口
24
口口口口 |①-②-|
口口③口 |③---|
口①口②
口口口口
25
口①口口 |①---|
口口口口 |----|
口口口口 |--②-|
口口口②
26
口口口口 |①---|
口口口口 |--②-|
口口②口
①口口口
27
①②口① |①---|
口①①口 |----|
①口口① |②---|
口口口口
28
口口口口 |①-②-|
②口③口 |③---|
口口①口
口口口口
29
口口口① |①---|
口口口口 |----|
口②口口 |②-③-|
口口口③
30
口口口口 |①---|
口口口口 |--②-|
口口②口
①口口口
31
①口口口 |①---|
口口③口 |②---|
口②口口 |③---|
②③口口
32
口口口② |①---|
口口口① |②---|
口口①②
口口口口
33
②口口口 |①---|
口③口口 |②---|
口①口口 |③---|
口①口口
34
口口口口 |①---|
口口口③ |②-③-|
口口①口
口②口口
35
口①⑤⑤ |①-②-|
⑤口①⑥ |③-④-|
③口口④ |⑤-⑥-|
①口口②
36
③③口口 |①-②-|
口①①口 |③-④-|
口①②口
口③④口
37
口⑤①① |①-②-|
⑤⑤口⑥ |③-④-|
③口口④ |⑤-⑥-|
①口口②
38
口口口① |①-②-|
口口①口 |③-④-|
口①②口
口③④口
39
口①①⑤ |①-②-|
⑤口⑤⑥ |③-④-|
③口口④ |⑤-⑥-|
①口口②
40
③①①口 |①-②-|
口③口口 |③-④-|
口①②口
口③④口
41
口口口① |①-②-|
⑤口①⑥ |③-④-|
③口口④ |⑤-⑥-|
①口口②
42
口口口口 |①-②-|
口口口口 |③-④-|
口①②口
口③④口
43
①⑤①口 |①-②-|
⑤口⑤⑥ |③-④-|
③口口④ |⑤-⑥-|
①口口②
44
③口①① |①-②-|
口③口口 |③-④-|
口①②口
口③④口
45
口①⑤⑤ |①-②-|
⑤口①⑥ |③-④-|
③口口④ |⑤-⑥-|
①口口②
46
口口口口 |①-②-|
口①①口 |③-④-|
口①②口
口③④口
47
③③⑤⑤ |①-②-|
⑤口口⑥ |③-④-|
③口口④ |⑤-⑥-|
①口口②
48
③③口口 |①-②-|
口①①口 |③-④-|
口①②口
口③④口
49
口口①① |①-②-|
⑤口口⑥ |③-④-|
③口口④ |⑤-⑥-|
①口口②
50
口口口口 |①-②-|
⑦口口口 |③-④-|
⑥①②口 |⑤-⑥-⑦-|
⑤③④口
51
①①口口 |①---|
口①口口 |②---|
口③③口 |③---|
口③口②
52
②②①口 |①---|
②③①① |②---③-|
口口口口
口口口口
53
口口口口 |①---|
口口口口 |②---|
口③口① |③---|
②口①①
54
②口口① |①---|
口口口口 |②---|
②口口①
口口口口
55
口口口口 |①---|
口①①② |②---|
③③②② |③---|
③口口口
56
口①①口 |①---|
口①③口 |②---③-|
口口②口
口②②口
57
口口⑤⑤ |①---|
①口口④ |②-③-④-|
①①口③ |⑤---|
口口口②
58
口口口口 |①---|
①①口口 |②---|
①口②口
口口口②
59
②②口口 |①---|
②③③口 |②---|
④①③口 |③---④-|
①口口口
60
口口②② |①---|
口口口② |②---③-|
口口口①
③口①①
61
②②口口 |①---|
②①①口 |②---|
口口①③ |③---|
口口③③
62
口口口口 |①---|
口②②口 |②---|
①①口口
口①口口
63
①①①① |①---|
①口口① |----|
口③③口 |②---|
口②口口 |③---|
64
口口口口 |①---|
①口口① |----|
口口口口 |----|
口口口口
65
①口口① |①---|
口①①口 |----|
口口口口 |----|
口口口口
66
⑦口口⑧ |①-②-|
⑤①①⑥ |③-④-|
③口口④ |⑤-⑥-|
口口口② |⑦-⑧-|
67
⑦口口口 |①-②-|
⑤⑧口⑥ |③-④-|
③⑨口④ |⑤-⑥-|
①口口② |⑦-⑧-⑨-|
68
⑦口口⑧ |①-②-|
⑤口口⑥ |③-④-|
③口口④ |⑤-⑥-|
①口口② |⑦-⑧-|
69
⑦口口口 |①-②-|
⑤⑧口⑥ |③-④-|
③⑨口④ |⑤-⑥-|
①口口② |⑦-⑧-⑨-|
70
⑦①②⑤ |①-②-|
口口③口 |--③④|
口口④口 |⑤⑥⑦⑧|
⑧①②⑥
71
口①口口 |①---|
口②口口 |②---|
口③口口 |③---|
口口口口
72
⑦①②⑤ |①-②-|
口口③口 |--③④|
口口④口 |⑤⑥⑦⑧|
⑧①②⑥
73
口①口口 |①---|
口②口口 |②---|
口③口口 |③---|
口④口口 |④---|
74
⑦口口⑧ |①-②-|
⑤口口⑥ |③-④-|
③口④口 |⑤-⑥-|
①口②口 |⑦-⑧-|
75
⑧口口⑦ |①-②-|
⑥口口⑤ |③-④-|
口④口③ |⑤-⑥-|
口②口① |⑦-⑧-|
76
口③②口 |①-②③|
口⑥⑤口 |④-⑤⑥|
口口口口
①④口口

口⑫⑪口
口口口口
口⑨⑧口 |⑦-⑧⑨|
口口⑦⑩ |⑩-⑪⑫|
77
口口口口 |①-②③|
口③②口 |④-⑤⑥|
口⑥⑤口
①④口口

口⑨⑧口
口⑫⑪口
口口口口 |⑦-⑧⑨|
口口⑦⑩ |⑩-⑪⑫|
78
⑧口口④ |①-②-|
③口口⑦ |③-④-|
⑥口口② |⑤-⑥-|
①口口⑤ |⑦-⑧-|
79
⑬⑩⑦③ |①②③④|
④②⑯⑫ |⑤⑥⑦⑧|
⑮⑧⑭⑨ |⑨⑩⑪⑫|
⑥⑪①⑤ |⑬⑭⑮⑯|
80
⑧⑥④② |①-②-|
口④口⑦ |③-④-|
口③⑧⑥ |⑤-⑥-|
⑦⑤③① |⑦-⑧-|
81
⑧⑥④② |①-②-|
②②口⑦ |③-④-|
④④⑧⑥ |⑤-⑥-|
⑦⑤③① |⑦-⑧-|
82
⑧⑥④② |①-②-|
④①④口 |③-④-|
口⑦口口 |⑤-⑥-|
⑦⑤③① |⑦-⑧-|
83
口口口口 |①-②-|
③②口④ |③-④-|
②口②口
口③④①

⑦⑤⑥口
口⑧⑤口
⑧⑤口⑤ |⑤-⑥-|
⑦口口口 |⑦-⑧-|
84
⑧⑥④② |①-②-|
④⑧口⑦ |③-④-|
口⑥③口 |⑤-⑥-|
⑦⑤③① |⑦-⑧-|
85
⑧⑥④② |①-②-|
⑦口②口 |③-④-|
③⑧④⑥ |⑤-⑥-|
⑦⑤③① |⑦-⑧-|
86
⑧⑥④② |①-②-|
口口③① |③-④-|
④口⑦口 |⑤-⑥-|
⑦⑤③① |⑦-⑧-|
87
口口⑥⑤ |①②③④|
⑧⑦②① |⑤⑥⑦⑧|
④③口口
口口口口

⑯⑮口口
口口⑭⑬
口口⑩⑨ |⑨⑩⑪⑫|
⑫⑪口口 |⑬⑭⑮⑯|
88
⑧⑥④② |①-②-|
口⑦口⑦ |③-④-|
口口口口 |⑤-⑥-|
⑦⑤③① |⑦-⑧-|
89
⑧⑥④② |①-②-|
③⑦③⑦ |③-④-|
⑤①⑤① |⑤-⑥-|
⑦⑤③① |⑦-⑧-|
90
口口④② |①-②-|
口口口口 |③-④-|
口①口①
口口③①

⑧⑥口口
口口口口
口口⑦口 |⑤-⑥-|
⑦⑤口⑦ |⑦-⑧-|
91
口口⑥⑤ |①②③④|
⑧⑦②① |⑤⑥⑦⑧|
④③口口
口口口口

⑯⑮口口
口口⑭⑬
口口⑩⑨ |⑨⑩⑪⑫|
⑫⑪口口 |⑬⑭⑮⑯|
92
⑧⑥④② |①-②-|
⑦口⑦口 |③-④-|
口口口口 |⑤-⑥-|
⑦⑤③① |⑦-⑧-|
93
⑧⑥④② |①-②-|
⑦③⑦③ |③-④-|
①⑤①⑤ |⑤-⑥-|
⑦⑤③① |⑦-⑧-|
94
⑧⑥④② |①-②-|
口⑤口⑤ |③-④-|
①口①口 |⑤-⑥-|
⑦⑤③① |⑦-⑧-|
95
口口⑦① |①②③④|
④⑥③口 |⑤⑥⑦⑧|
②⑧口口
口口口⑤

⑭⑩口口
口口⑮⑪
⑯口⑬口 |⑨⑩⑪⑫|
⑫口⑨口 |⑬⑭⑮⑯|
96
⑧⑥④② |①-②-|
口口口口 |③-④-|
口口口口 |⑤-⑥-|
⑦⑤③① |⑦-⑧-|
97
⑧⑥④② |①-②-|
口⑨口口 |③-④-|
口口⑩口 |⑤-⑥-|
⑦⑤③① |⑦--⑧⑨⑩|
98
⑧⑥④② |①-②-|
口口口口 |③-④-|
口口口口 |⑤-⑥-|
⑦⑤③① |⑦-⑧-|
99
⑧⑥④② |①-②-|
④②口口 |③-④-|
口③口口 |⑤-⑥-|
⑦⑤③① |⑦-⑧-|
100
口口口口 |①②③④--|
④③②① |----|
①②③④ |----|
口口口口 |----|

不確定度: 0

最終更新:2015年11月02日 23:44