アレスの楯
劇団レコード

EXTREME

Level: 9
BPM: 174
Notes: 671

1
口口口口 |----|
①口口② |----|
口口口口 |----|
口口口口 |--①②|
2
②口口口 |①---|
口口口口 |----|
口①①口 |②---|
口①①口 |----|
3
⑪⑫口① |①-②-③-|
②③④口 |④-⑤-⑥-|
口⑦⑥⑤ |⑦-⑧-⑨-|
⑧⑨⑩口 |⑩-⑪-⑫-|
4
口口①口 |①-②-③-|
口④③② |④-⑤-⑥-|
⑤⑥口口
口口口口

口口口口
口口口⑪
口口⑦口 |⑦-⑧-⑨-|
口⑩⑨⑧ |⑩-⑪-|
5
①①口口 |--①-|
口口口口 |----|
口口口口 |----|
口口口口 |----|
6
口口口口 |①---|
口①①口 |----|
口①①口 |----|
口口口口 |----|
7
⑤口⑤④ |①-②-|
③口口口 |③-④-|
口口②口 |⑤---|
⑥①⑥① |⑥---|
8
③口⑥⑥ |①---|
口①④① |②---|
⑤口口口 |③④⑤-|
口②口② |⑥---|
9
④⑤口⑤ |①-②-|
口口口③ |③-④-|
口②口口 |⑤---|
①⑥①⑥ |⑥---|
10
⑥⑥口③ |①---|
①④①口 |②---|
口口口⑤ |③④⑤-|
②口②口 |⑥---|
11
⑤口⑤④ |①-②-|
③口口口 |③-④-|
口口②口 |⑤---|
⑥①⑥① |⑥---|
12
③口⑥⑥ |①---|
口①④① |②---|
⑤口口口 |③④⑤-|
口②口② |⑥---|
13
④⑤口⑤ |①-②-|
口口口③ |③-④-|
口②口口 |⑤---|
①⑥①⑥ |⑥---|
14
口口口口 |①---|
①口①口 |②---|
口口口口
②口②口

口③口④
⑥口⑤口
③口④口 |③-④-|
口⑥口⑤ |⑤-⑥-|
15
②口②口 |①---|
口①④① |②---|
③①③① |③---|
③口③口 |--④-|
16
②口②口 |①---|
口口口口 |②---|
口①口①
口①口①

口③口③
口③口③
口④口口 |③---|
口口口口 |--④-|
17
口口②口 |①---|
口口④口 |②---|
①口①口 |③---|
①③①口 |--④-|
18
口口口口 |①---|
口①口① |----|
口①口① |----|
口口口口 |----|
19
口口口口 |①-②-|
口口口④ |③-④-|
①口口③
口①口②

口口口⑤
口口口口
口口口口 |⑤--⑥|
⑥⑦⑧⑨ |⑦⑧⑨-|
20
④①口⑤ |①-②-|
①⑨③⑥ |③-④-|
⑧②口⑦ |⑤⑥⑦-|
口⑧口口 |⑧-⑨-|
21
口口口口 |①-②-|
④口口口 |③-④-|
口③①口
②口口①

⑥⑤口口
口⑦口口
口口⑧口 |⑤--⑥|
口口口⑨ |⑦⑧⑨-|
22
⑤⑥⑦口 |①-②-|
④⑤口⑧ |③-④-|
③④⑨① |⑤⑥⑦-|
②③①口 |⑧-⑨-|
23
口口口口 |①---|
③口口口 |②-③-|
①口口口
①③口②

口口④④
口⑤口口
口口口口 |④---|
⑤口⑤口 |⑤---|
24
口口口口 |①---|
口口①口 |②---|
①②口口
口口口②

口口口口
口口口口
④口③口 |③---|
③⑤④口 |④-⑤-|
25
口①②口 |①---|
②口口① |②---|
口口口口
口口口口

口⑤口口
口③口⑤
口口④③ |③---|
④口口口 |④-⑤-|
26
口口⑤⑦ |①-②-|
④⑥①⑧ |③-④-|
①③口⑨ |⑤-⑥-|
口②口⑩ |⑦⑧⑨⑩|
27
口口口口 |①---|
③口口口 |②-③-|
①口②口
①③口口

口口④④
口⑤口口
口口口口 |④---|
⑤口⑤口 |⑤---|
28
口口口口 |①---|
口口①口 |②---|
①②口口
口口口②

口口口口
口⑤口口
④口③口 |③---|
③口④口 |④-⑤-|
29
口①口口 |①---|
②口③① |②---|
③⑥②④ |③---|
⑤④口口 |④-⑤⑥|
30
口口口① |①---|
口⑤⑥口 |②---|
③口口④ |③-④-|
口口②口 |⑤-⑥-|
31
口口口口 |①-②-|
口口口口 |③-④-|
③④③④
①②①②

⑤⑤⑤口
口⑧⑦⑥
口口口口 |⑤-⑥⑦|
口口口⑨ |⑧-⑨-|
32
③口口④ |①---|
①⑤⑤口 |②-③-|
③口口④ |④---|
①②②口 |⑤---|
33
口口口口 |①-②-|
口口口口 |③-④-|
④③④③
②①②①

口⑤⑤⑤
⑥⑦⑧口
口口口口 |⑤-⑥⑦|
⑨口口口 |⑧-⑨-|
34
口口⑤口 |①---|
口④口① |②---|
③口口口 |③-④-|
口②②① |⑤---|
35
①①口口 |①---|
①口口口 |----|
口口①口
口口口口

③口②②
口口口②
口②口口 |②---|
口口口口 |③---|
36
口口口口 |①---|
口②①口 |②---|
①口口②
①①②②

③③口口
③口口⑤
口口③口 |③---|
④口口口 |④-⑤-|
37
口③口口 |①---|
⑤①口口 |②-③-|
口口④口 |④-⑤-|
⑥⑥②② |⑥---|
38
①口口① |①-②-|
口②口② |③-④-|
③④③④
口口口口

口口口口
口⑧口口
口口口口 |⑤-⑥-|
⑥⑤⑤⑦ |⑦-⑧-|
39
⑤①②① |①-②-|
口⑥①口 |--③-|
口③⑤口 |④---|
③④③口 |⑤-⑥-|
40
口⑨③② |①---|
①口⑤④ |②③④⑤|
口口⑧⑥ |⑥-⑦-|
⑦口口① |⑧-⑨-|
41
①口⑤⑥ |①-②-|
②①口③ |--③-|
①④⑥⑤ |④-⑤-|
⑦⑦④口 |⑥-⑦-|
42
②③口口 |①---|
④⑤①⑦ |②③④⑤|
⑥口⑧口 |⑥---|
口⑦口① |⑦-⑧-|
43
③口口① |①---|
口口③口 |②-③-|
口①口口
②口口口

口口口口
⑤④口口
⑦⑥⑤口 |④-⑤-|
口口⑦口 |⑥-⑦-|
44
⑤④⑤口 |①---|
③口口④ |②-③-|
口口③口 |④---|
口①口② |⑤---|
45
③④④① |①---|
口③①口 |--②-|
②①③口 |③---|
①口口③ |④---|
46
④⑧口口 |①-②-|
②⑤⑤③ |③-④-|
③口⑦② |⑤-⑥-|
⑥①①④ |⑦-⑧-|
47
⑥口口① |①②③④|
⑦口⑤② |--⑤-|
⑧口⑩③ |⑥⑦⑧⑨|
⑨口⑪④ |⑩-⑪-|
48
口①⑥⑤ |①②③④|
口②⑧⑦ |⑤⑥⑦⑧|
口③口口
口④口口

口⑫口口
口口口口
口口⑪⑨ |⑨-⑩-|
⑩口口口 |⑪-⑫-|
49
①口⑤⑥ |①-②-|
②①口③ |--③-|
①④⑥⑤ |④-⑤-|
⑦⑦④口 |⑥-⑦-|
50
②③口口 |①---|
④⑤①⑦ |②③④⑤|
⑥口⑧口 |⑥---|
口⑦口① |⑦-⑧-|
51
③口口① |①---|
口口③口 |②-③-|
口①口口
②口口口

口口口口
⑤④口口
⑦⑥⑤口 |④-⑤-|
口口⑦口 |⑥-⑦-|
52
⑤④⑤口 |①---|
③口口④ |②-③-|
口口③口 |④---|
口①口② |⑤---|
53
口④口口 |①---|
④①①口 |②-③-|
口口口⑤ |④-⑤-|
②口⑤③ |----|
54
口口口口 |①---|
口①①口 |----|
口①①口
口口口口

口口口口
④口口口
口③口口 |--②-|
②口口口 |③-④-|
55
口②口① |①②③-|
口口①③ |--④-|
口口口①
口口口④

口口口⑦
口口口口
口⑥⑧口 |⑤-⑥-|
口口⑤口 |⑦-⑧-|
56
①口②口 |①②③-|
③①口④ |--④-|
①口口口
口口口口

口口口口
口口口口
⑦口口口 |⑤---|
口⑥⑤口 |⑥-⑦-|
57
口口口② |①---|
口①口口 |--②-|
口口口口
口口口口

口口口口
口⑥⑤口
⑤④③⑥ |③-④-|
③口口④ |⑤-⑥-|
58
③②①口 |①②③-|
①⑥口⑤ |----|
口口⑦口 |④-⑤-|
④④口口 |⑥-⑦-|
59
③①口② |①---|
①口口口 |②-③-|
口口口①
②口①③

口口口口
口口口口
口口口口 |----|
口④④口 |④---|
60
③口口② |①-②-|
⑥①①口 |③-④-|
口④④口 |----|
②⑤口③ |⑤-⑥-|
61
④③②① |①②③-|
口⑦⑥⑤ |--④-|
⑧口口口 |⑤⑥⑦-|
口口口口 |--⑧-|
62
口口口口 |①②③-|
口口口口 |----|
口口口口 |----|
口③②① |----|
63
口口口口 |①---|
口①①口 |----|
口①①口 |----|
口口口口 |----|
64
⑤口⑤④ |①-②-|
③口口口 |③-④-|
口口②口 |⑤---|
⑥①⑥① |⑥---|
65
③口⑥⑥ |①---|
口①④① |②---|
⑤口口口 |③④⑤-|
口②口② |⑥---|
66
④⑤口⑤ |①-②-|
口口口③ |③-④-|
口②口口 |⑤---|
①⑥①⑥ |⑥---|
67
⑥⑥口③ |①---|
①④①口 |②---|
口口口⑤ |③④⑤-|
②口②口 |⑥---|
68
⑤口⑤④ |①-②-|
③口口口 |③-④-|
口口②口 |⑤---|
⑥①⑥① |⑥---|
69
③口⑥⑥ |①---|
口①④① |②---|
⑤口口口 |③④⑤-|
口②口② |⑥---|
70
④⑤口⑤ |①-②-|
口口口③ |③-④-|
口②口口 |⑤---|
①⑥①⑥ |⑥---|
71
口口口口 |①---|
①口①口 |②---|
口口口口
②口②口

口③口④
口⑤⑤口
③口④口 |③-④-|
口口口口 |⑤---|
72
口口口口 |①---|
①口口① |----|
口口口口 |----|
①口口① |----|

不確定度: 0

最終更新:2015年08月25日 00:19