炎のDiargos
Mutsuhiko Izumi

EXTREME

Level: 9
BPM: 230
Notes: 837

1
口口口口 |----|
口口口口 |----|
口口口口 |----|
口口口口 |----|
2
①②③④ |①---|
口口口口 |②---|
口口口口 |③---|
口口口口 |④---|
3
④⑤⑥口 |①-②-|
口口⑥口 |③-④-|
①②③口 |⑤-⑥-|
⑦⑧③口 |⑦-⑧-|
4
口⑤⑤口 |①-②-|
②③口口 |③-④-|
口④④① |--⑤-|
口口口① |----|
5
口⑥⑧⑦ |①-②-|
口⑥⑤④ |③-④-|
③口口口 |⑤-⑥-|
③口②① |⑦-⑧-|
6
①口口口 |①-②-|
①口口口 |③-④-|
口口③② |----|
④④口口 |----|
7
④⑤口⑥ |①-②-|
口口口⑥ |③-④-|
①②③口 |⑤-⑥-|
⑦⑧③口 |⑦-⑧-|
8
口⑤⑤口 |①-②-|
②③口口 |③-④-|
口④④① |--⑤-|
口口口① |----|
9
口口④口 |①---|
②口①口 |②---|
口③口④ |③-④-|
口②口口 |----|
10
口②⑬① |①②③④|
口④⑬③ |⑤⑥⑦⑧|
⑥⑫⑤⑪ |⑨⑩⑪⑫|
⑧⑩⑦⑨ |⑬---|
11
③③口⑧ |①-②-|
①⑦口② |③-④-|
⑤口④口 |⑤-⑥-|
口口⑥⑥ |⑦-⑧-|
12
口⑤⑤口 |①-②-|
③口口口 |③-④-|
口④④② |--⑤-|
①①口口 |----|
13
⑧⑥口⑤ |①-②-|
⑥口①口 |③-④-|
②口⑦③ |⑤-⑥-|
口④③口 |⑦-⑧-|
14
口口①口 |①-②-|
口口③① |③-④-|
②⑦⑥⑤ |--⑤-|
④④④口 |⑥-⑦-|
15
③③口② |①-②-|
①⑦口④ |③-④-|
⑤口口⑧ |⑤-⑥-|
口口⑥⑥ |⑦-⑧-|
16
③⑤⑤口 |①-②-|
口口②口 |③-④-|
口④④口 |--⑤-|
①①口口 |----|
17
口⑥口① |①-②-|
⑥④口口 |③-④-|
②⑧⑦③ |⑤-⑥-|
口口③⑤ |⑦-⑧-|
18
②口①⑤ |①-②-|
⑥口③① |③-④-|
口口⑦口 |--⑤-|
④④④口 |⑥-⑦-|
19
口①①口 |①---|
口口口② |②---|
口口口③ |③---|
口口口④ |④---|
20
口口口口 |①---|
口口口口 |②---|
④口口口 |③---|
③②①口 |④---|
21
②③④口 |①---|
①①口口 |②---|
口③口口 |③---|
口口口口 |④---|
22
口⑥口口 |①-②-|
②口⑤③ |--③-|
口④口口 |--④-|
口口①口 |⑤-⑥-|
23
①口②① |①---|
③口⑤④ |②-③-|
⑤口②口 |④---|
口口⑤④ |⑤---|
24
口⑥②① |①---|
口口⑤③ |②---|
口④②① |③-④-|
口口⑤③ |⑤-⑥-|
25
①口②① |①---|
⑤⑤⑤④ |②-③-|
③口②口 |④---|
口口⑤④ |⑤---|
26
口⑥②① |①---|
口口⑤③ |②---|
口④②① |③-④-|
口口⑤③ |⑤-⑥-|
27
①口②① |①---|
③口⑤④ |②-③-|
口口②口 |④---|
⑤⑤⑤④ |⑤---|
28
①①②① |①---|
口③⑤④ |②-③-|
口⑤②① |④---|
口⑤⑤④ |⑤---|
29
①口②① |①---|
③口口④ |②-③-|
①口②① |④---|
口⑤⑤④ |⑤---|
30
口口口口 |①-②-|
口②②口 |--③-|
③①口③ |--④-|
④⑥⑤口 |⑤-⑥-|
31
①口②① |①---|
③口⑤④ |②-③-|
⑤口②口 |④---|
口口⑤④ |⑤---|
32
口⑥②① |①---|
口口⑤③ |②---|
口④②① |③-④-|
口口⑤③ |⑤-⑥-|
33
①口②① |①---|
⑤⑤⑤④ |②-③-|
③口②口 |④---|
口口⑤④ |⑤---|
34
口⑥②① |①---|
口口⑤③ |②---|
口④②① |③-④-|
口口⑤③ |⑤-⑥-|
35
①口②① |①---|
③口⑤④ |②-③-|
口口②口 |④---|
⑤⑤⑤④ |⑤---|
36
①①②① |①---|
口③⑤④ |②-③-|
口⑤②① |④---|
口⑤⑤④ |⑤---|
37
①口②① |①---|
③口口④ |②-③-|
①口②① |④---|
口⑤⑤④ |⑤---|
38
口口口口 |①-②-|
口②②口 |--③-|
③①口③ |--④-|
④⑥⑤口 |⑤-⑥-|
39
口口口口 |①---|
②③④口 |②---|
口口①口 |③---|
口口口① |④---|
40
口口口① |①---|
口口口口 |--②-|
口口②② |----|
口口口口 |----|
41
口口口口 |----|
口③②① |①---|
口口口口 |②---|
口口口口 |③---|
42
②②口口 |①---|
口口口口 |--②-|
①口口口 |----|
口口口口 |----|
43
口口口① |①---|
口口②口 |--②-|
口③口口 |----|
口口口口 |③---|
44
口口口口 |①---|
口②口口 |--②-|
口口③口 |----|
口口口① |③---|
45
口口口口 |①---|
口口口口 |----|
口口口口 |----|
①口口口 |----|
46
①口口① |①---|
口口口口 |----|
口口口口 |----|
口口口口 |----|
47
口口口口 |----|
①②③口 |①---|
口口口口 |②---|
口口口口 |③---|
48
口口口① |①---|
口口口口 |--②-|
口口②② |----|
口口口口 |----|
49
口口口口 |----|
口③②① |①---|
口口口口 |②---|
口口口口 |③---|
50
②②口口 |①---|
口口口口 |--②-|
①口口口 |----|
口口口口 |----|
51
口口口① |①---|
②口口③ |--②-|
口①口口 |----|
口③②口 |③---|
52
口①口口 |①---|
口③②口 |--②-|
口口口① |----|
②口口③ |③---|
53
①①②③ |①---|
口口口④ |②---|
①①口口 |③---|
口口口口 |④---|
54
口口口口 |①---|
口口口口 |②---|
口口①① |③---|
口④③② |④---|
55
④口口口 |①---|
③口口口 |②---|
②①口口 |③---|
①口口口 |④---|
56
口②⑬① |①②③④|
口④⑬③ |⑤⑥⑦⑧|
⑥⑫⑤⑪ |⑨⑩⑪⑫|
⑧⑩⑦⑨ |⑬---|
57
①⑤口② |①-②-|
③③口⑥ |③-④-|
口口口⑥ |⑤-⑥-|
⑦口④⑧ |⑦-⑧-|
58
①⑤⑤口 |①-②-|
口口②口 |③-④-|
①④④口 |--⑤-|
口③口口 |----|
59
①口口④ |①-②-|
口⑤②口 |③-④-|
③口口⑥ |⑤-⑥-|
⑦③⑥⑧ |⑦-⑧-|
60
口①④口 |①-②-|
①口②④ |③-④-|
口⑦⑥⑤ |--⑤-|
口③口口 |⑥-⑦-|
61
①⑤口② |①-②-|
口③⑥⑧ |③-④-|
③口口⑥ |⑤-⑥-|
⑦口④口 |⑦-⑧-|
62
①⑤⑤口 |①-②-|
①口口口 |③-④-|
口④④口 |--⑤-|
口③口② |----|
63
④口口② |①-②-|
③口口① |③-④-|
⑧口口⑥ |⑤-⑥-|
⑦口口⑤ |⑦-⑧-|
64
⑩①①⑨ |①---|
⑧②②⑦ |②---|
口⑥⑤口 |③④⑤⑥|
口④③口 |⑦⑧⑨⑩|
65
口④⑥⑧ |①-②-|
口口③口 |③-④-|
口口口① |⑤-⑥-|
②口⑤⑦ |⑦-⑧-|
66
⑥④口口 |--①-|
口口③口 |②-③-|
口②①口 |④-⑤-|
⑦⑤口口 |⑥-⑦-|
67
口口口口 |--①-|
口②口① |②-③-|
口④口③ |④-⑤-|
⑥⑥⑤⑤ |--⑥-|
68
⑥口⑤⑦ |--①-|
④口③口 |②-③-|
②口①口 |④-⑤-|
口口口口 |⑥-⑦-|
69
⑤①④⑥ |①---|
口①口③ |②-③-|
口①口③ |--④-|
口②口③ |⑤-⑥-|
70
⑤①④口 |①---|
口①⑥③ |②-③-|
口①口③ |--④-|
口②口③ |⑤-⑥-|
71
口口口口 |①-②-|
⑦口口⑧ |③-④-|
①②③口 |⑤-⑥-|
口⑥⑤④ |⑦-⑧-|
72
②②①① |--①-|
口②①口 |--②-|
③④⑤口 |--③-|
口口口口 |④-⑤-|
73
口③⑤⑦ |--①-|
口口②口 |②-③-|
口口口口 |④-⑤-|
①口④⑥ |⑥-⑦-|
74
⑥④口口 |--①-|
口口③口 |②-③-|
口②①口 |④-⑤-|
⑦⑤口口 |⑥-⑦-|
75
口口口口 |--①-|
口②口① |②-③-|
口④口③ |④-⑤-|
⑥⑥⑤⑤ |--⑥-|
76
⑥口⑤⑦ |--①-|
④口③口 |②-③-|
②口①口 |④-⑤-|
口口口口 |⑥-⑦-|
77
⑤①④⑥ |①---|
口①口③ |②-③-|
口①口③ |--④-|
口②口③ |⑤-⑥-|
78
⑤①④口 |①---|
口①⑥③ |②-③-|
口①口③ |--④-|
口②口③ |⑤-⑥-|
79
口口口口 |①-②-|
⑦口口⑧ |③-④-|
①②③口 |⑤-⑥-|
口⑥⑤④ |⑦-⑧-|
80
②②①① |--①-|
口②①口 |--②-|
③④⑤口 |--③-|
口口口口 |④-⑤-|
81
口口口口 |①---|
②③④① |②---|
口口口口 |③---|
口口口① |④---|
82
口口口① |①---|
口口口口 |--②-|
口口②② |----|
口口口口 |----|
83
口口口口 |----|
口③②① |①---|
口口口口 |②---|
口口口口 |③---|
84
②②口口 |①---|
口口口口 |--②-|
①口口口 |----|
口口口口 |----|
85
口口口① |①---|
口口②口 |--②-|
口③口口 |----|
口口口口 |③---|
86
口口口口 |①---|
口②口口 |--②-|
口口③口 |----|
口口口① |③---|
87
口口口口 |①---|
口口口口 |----|
口口口口 |----|
①口口口 |----|
88
①口口① |①---|
口口口口 |----|
口口口口 |----|
口口口口 |----|
89
口口口口 |----|
①②③口 |①---|
口口口口 |②---|
口口口口 |③---|
90
口口口① |①---|
口口口口 |--②-|
口口②② |----|
口口口口 |----|
91
口口口口 |----|
口③②① |①---|
口口口口 |②---|
口口口口 |③---|
92
②②口口 |①---|
口口口口 |--②-|
①口口口 |----|
口口口口 |----|
93
口口口① |①---|
②口口③ |--②-|
口①口口 |----|
口③②口 |③---|
94
口①口口 |①---|
口③②口 |--②-|
口口口① |----|
②口口③ |③---|
95
①①②③ |①---|
口口口④ |②---|
①①口口 |③---|
口口口口 |④---|
96
口口口口 |①---|
口口口口 |②---|
口口①① |③---|
口④③② |④---|
97
④口口口 |①---|
③口口口 |②---|
②①口口 |③---|
①口口口 |④---|
98
口②⑬① |①②③④|
口④⑬③ |⑤⑥⑦⑧|
⑥⑫⑤⑪ |⑨⑩⑪⑫|
⑧⑩⑦⑨ |⑬---|
99
③口口② |①-②-|
①③口⑥ |③-④-|
⑤口口⑧ |⑤-⑥-|
⑦口④⑥ |⑦-⑧-|
100
口⑤⑤② |①-②-|
①③口口 |③-④-|
口④④口 |--⑤-|
口①口口 |----|
101
④⑥口⑤ |①-②-|
口⑧口① |③-④-|
⑥口口③ |⑤-⑥-|
②口③⑦ |⑦-⑧-|
102
⑤⑥⑦口 |①-②-|
口口①③ |③-④-|
口④①④ |--⑤-|
④②④口 |⑥-⑦-|
103
⑦口口② |①-②-|
③③⑥④ |③-④-|
①口口⑧ |⑤-⑥-|
⑤口口⑥ |⑦-⑧-|
104
口⑤⑤口 |①-②-|
口③口口 |③-④-|
①④④口 |--⑤-|
口①②口 |----|
105
⑥口⑦① |①-②-|
⑥④口③ |③-④-|
②口口⑤ |⑤-⑥-|
⑧口③口 |⑦-⑧-|
106
口口口① |①-②-|
口⑤①③ |③-④-|
④②④口 |--⑤-|
⑦④⑥④ |⑥-⑦-|
107
口①①口 |①---|
口口口② |②---|
口口口③ |③---|
口口口④ |④---|
108
口口口口 |①---|
口口口口 |②---|
④口口口 |③---|
③②①口 |④---|
109
②③④口 |①---|
①①口口 |②---|
口③口口 |③---|
口口口口 |④---|
110
口⑥⑤④ |①-②-|
②口口③ |--③-|
口口口口 |--④-|
口口①口 |⑤-⑥-|
111
⑯⑮⑭⑬ |①②③④|
⑫⑪⑩⑨ |⑤⑥⑦⑧|
⑧⑦⑥⑤ |⑨⑩⑪⑫|
④③②① |⑬⑭⑮⑯|
112
口口口口 |①②③④|
口口口⑨ |⑤⑥⑦⑧|
⑧⑦⑥⑤ |⑨---|
④③②① |----|
113
③③③③ |①-②-|
口①①口 |③---|
口口口口 |----|
口②②口 |----|

不確定度: 0

最終更新:2015年08月25日 00:20