glacia [2]
DJ TOTTO

EXTREME

Level: 10
BPM: 186
Notes: 936

1
口①①口 |----|
口口口口 |----|
口口口口 |----|
口①①口 |①---|
2
|①-②-|
口口④口 |③-④-|
口③②口
口口口①

口口口⑥
口口口口
口口口口 |--⑤-|
口⑤口口 |--⑥-|
3
口口口口 |--①-|
口①⑥② |--②③|
口⑤口③ |④-⑤-|
口口口④ |⑥---|
4
口口口 |①-②-|

口口②口
口①口口

口⑥④口
口③口口 |③-④-|
口口口⑤ |--⑤-|
口口口口 |--⑥-|
5
口⑥口① |--①-|
口口②⑦ |--②③|
口⑤③口 |④-⑤-|
口口④口 |⑥-⑦-|
6
口⑤③④ |①-②-|
②⑥口 |③-④-|
|--⑤-|
口口口① |--⑥-|
7
口口口口 |--①-|
口⑥口② |--②③|
口口⑤③ |④-⑤-|
口①口④ |⑥---|
8
口口④① |①-②-|
口口③口 |③-④-|
②⑥⑤ |⑤-⑥-|


口⑦口⑧
口口口口

口口口 |⑦-⑧-|
9
口⑧②⑧ |--①-|
③④⑤⑥ |②-③④|
口口⑦ |⑤⑥⑦-|
口①口口 |⑧---|
10
⑦⑥⑦ |①-②③|
⑤口⑥ |④-⑤-|
口①口 |--⑥-|
②③④ |--⑦-|
11
口口口口 |--①-|
口⑥②口 |--②③|
口③④⑦ |④-⑤-|
口①①⑤ |⑥-⑦-|
12
③② |①-②③|
⑦④ |④-⑤-|
⑤口 |--⑥-|
口⑥ |--⑦-|
13
口①③② |--①-|
口口口④ |--②③|
口口⑥⑤ |④-⑤-|
口口口⑦ |⑥-⑦-|
14
⑤口口 |①-②③|
口④口 |④-⑤-|
③②


口口⑥口
⑦口口口
口口口口 |--⑥-|
口口口口 |--⑦-|
15
③②口口 |--①-|
口④⑥口 |--②③|
口⑦口口 |④-⑤-|
⑤①口口 |⑥-⑦-|
16
④③⑤ |①-②③|
口口口 |④-⑤-|
②口⑦ |⑥-⑦-|
⑥口

口口
⑨口
口⑧
口口 |⑧-⑨-|
17
⑥⑤④③ |--①-|
口⑦⑨口 |②-③④|
①口口⑧ |⑤⑥⑦-|
口②口 |⑧-⑨-|
18
口④口口 |①-②-|
口口口口 |③-④-|
口②③口


口口口口
⑦口⑧口
口口口⑥ |⑤-⑥-|
⑤口口 |⑦-⑧-|
19
⑤口④口 |--①②|
口①⑩⑥ |③④⑤⑥|
⑦⑨⑧口 |⑦⑧⑨⑩|
口③②口


口口口
口口口
口口口 |⑪---|
20
口口 |①-②③|
③口口
口口口①
口口①②

口④口
口口口 |④-⑤-|
口口口
口口口口

口口口

口⑥口口 |⑥-⑦-|
口⑧口口 |⑧-|

口口口口
口口
口口口口
口 |⑨-|
21
口口口 |①-②-|
口①
口口
口口口

⑧④口③
⑧口⑨⑤ |③-④⑤|
口⑥⑨ |⑥-⑦-|
口口⑦⑦ |⑧-⑨-|
22
口口⑤⑤ |①-②③|
⑦④口口 |④-⑤-|
①口③口 |⑥-⑦-|
②①⑥口

口口口
口口⑧
口口口
口口口口 |⑧-⑨-|
23
⑨④⑩ |①-②-|
口口⑤⑧ |③-④⑤|
口①⑥口 |⑥⑦⑧-|
口③⑦② |⑨-⑩-|
24
②口口口 |①-②③|
③①口口 |④⑤⑥-|
④①口⑥
⑤口口口

口⑫⑦口
口⑬⑧⑪
口口⑨口 |⑦⑧⑨⑩|
口口⑩口 |⑪-⑫⑬|
25
③口口② |①-②-|
口口⑥口 |③-④-|
口①⑦口 |⑤-⑥⑦|
④ |⑧-|

口口口口
⑨⑨口口
口口口口
口口口 |⑨-|
26
②③④⑤ |--①-|
口⑧⑧① |②③④⑤|
⑥⑦口① |⑥-⑦-|
⑦⑥口口 |--⑧-|
27
②①⑦③ |--①-|
①口⑥⑦ |②-③-|
⑤④⑥口 |④-⑤-|
④⑤口口 |⑥-⑦-|
28
口口④ |①-②③|
③口口 |④-⑤-|
口口①
口口①②

口口口

口⑥口口 |⑥-⑦-|
口⑧口口 |⑧-|

口口口口
口口
口口口口
口 |⑨-|
29
口口口 |①-②-|
口①
口口
口口口

⑧④口③
⑧口⑨⑤ |③-④⑤|
口⑥⑨ |⑥-⑦-|
口口⑦⑦ |⑧-⑨-|
30
口口⑤⑤ |①-②③|
口④口口 |④-⑤-|
①口③口
②①口口

口⑨口口
⑦口口⑧
口口口口 |⑥-⑦-|
口⑨⑥口 |⑧-⑨-|
31
口⑤④⑥ |--①-|
口口口口 |--②-|
②①①② |③-④-|
③⑤④③ |⑤-⑥-|
32
②口口口 |①-②③|
③①口口 |④⑤⑥-|
④①口⑥
⑤口口⑥

口⑫⑦⑪
口⑬⑧⑪
口口⑨口 |⑦⑧⑨⑩|
口口⑩口 |⑪-⑫⑬|
33
②口口口 |①-②-|
口口⑥口 |③-④-|
④①⑦⑤ |⑤-⑥⑦|
③ |⑧-|

口口口口
⑨⑨口口
口口口口
口口口 |⑨-|
34
⑤①⑩④ |--①②|
⑨⑨⑩⑧ |③④⑤⑥|
⑦口⑧⑥ |⑦-⑧-|
③⑦口② |⑨-⑩-|
35
⑩①⑪① |--①-|
口⑧口⑨ |②-③-|
⑥②⑦③ |④⑤⑥⑦|
②④③⑤ |⑧⑨⑩⑪|
36
⑤①口口 |①---|
①④口口 |----|
③口 |②-③-|
口口口口 |④-⑤-|
37
口④口口 |①-②-|
③口口口 |③-④-|
口②口
口口

口口⑧口
口⑦
口口⑥口 |⑤-⑥-|
口口口 |⑦-⑧-|
38
口口口口 |①-②-|
②口④ |③-④-|

口口③口

⑧口口口
口⑥口口
⑦口口口 |⑤-⑥-|
口⑤口口 |⑦-⑧-|
39
⑧口口口 |①-②-|
②⑥④口 |③-④-|
⑦口口口 |⑤-⑥-|
①⑤③口 |⑦-⑧-|
40
口②④口 |①-②-|
⑥⑧ |③-④-|
口①③ |⑤-⑥-|
口口口⑦ |⑦-⑧-|
41
口口口④ |①-②-|
②口口 |③-④-|
口③
口口口口

⑥口
口口口⑧
口口口 |⑤-⑥-|
口口口⑦ |⑦-⑧-|
42
口口口 |①-|

口口口口
口口口口

⑧⑧口⑥ |②-|
②④口 |③-④-|
口⑦口⑤ |⑤-⑥-|
口口③口 |⑦-⑧-|
43
口口①口 |--①-|
口①口口 |②-|
口口口口
口口②②

口⑦口⑤
口口口口 |③-|
③⑥口④ |④-⑤-|
口 |⑥-⑦-|
44
口口口口 |①-②-|
口口②③ |③-④-|
口口①口
④口

口口⑦⑥
口口口口
口口口⑧ |⑤-⑥-|
口口 |⑦-⑧-|
45
口口口口 |①-②-|
口② |③-④-|
口口
口③④

口⑥口口
口⑦
口口 |⑤-⑥-|
口⑧口口 |⑦-⑧-|
46
|①-②-|
②⑥口 |③-④-|
口⑤④口 |⑤-⑥-|
③⑧口口 |⑦-⑧-|
47
口①⑧ |①-②-|
口⑥ |③-④-|
③口 |⑤-⑥-|
④口口⑦ |⑦-⑧-|
48
|①-②-|
口口②口 |③-④-|
口口
口③④口

口口⑦
口⑧口⑥
口口⑨⑤ |⑤-⑥-|
口口口口 |⑦-⑧⑨|
49
口②口口 |①-②-|
口口口口
口口口口


口口口⑦
③口口口 |③-④-|
⑥ |⑤-⑥-|
口④⑧ |⑦-⑧-|
50
口口口口 |①-②-|
|③-④-|
④②口
口③口口

口口⑤口
口⑥口口
口口口口 |⑤-⑥-|
口口口口


⑦口口
口口口口
口口口口 |⑦-⑧-|
51
口口口① |①-②-|
口口口口 |③-④-|

口③④口

口口口
口口⑤
口⑥ |⑤-⑥-|
口口口 |⑦---|
52
③④口 |①-②③|
⑤②⑥① |④-⑤-|
①⑦口口 |--⑥-|
口口⑧ |⑦-⑧-|
53
口口口⑩ |--①②|
②③⑨口 |③④⑤⑥|
①⑧⑥⑤ |⑦-⑧-|
⑦口口④ |⑨-⑩-|
54
⑧口⑤口 |①-②③|
④③口口 |④-⑤-|
②⑥口口 |--⑥-|
口①①⑦ |⑦-⑧-|
55
口口口① |--①-|
口②③口 |--②③|
口④口⑤ |④-⑤-|
⑥口⑦口 |⑥-⑦-|
56
⑤①①⑦ |①-②③|
口口口④ |④-⑤-|
口⑧③口 |--⑥-|
⑥②口口 |⑦-⑧-|
57
口①②⑧ |--①②|
口⑦口口 |③④⑤⑥|
③⑨口⑥ |⑦-⑧-|
口④⑤⑩ |⑨-⑩-|
58
口①①口 |①-②③|
口口口⑤ |④-⑤-|
④口口口
②③口口

⑨⑨口口
口口⑧口
口⑦口⑨ |⑥-⑦-|
口口⑥⑨ |⑧-⑨-|
59
口口①① |--①-|
②③④② |--②-|
①⑤口⑥ |--③④|
①②②⑥ |⑤-⑥-|
60
口口②口 |①-②③|
③口口口
口口口口
①口口口


口口口口 |④-⑤-|
口口口口
口口④口


口⑥口口
⑦口口口 |⑥-⑦-|
口⑧口口 |⑧-⑨-|
61
⑪⑪⑥ |①-②③|
口⑦①⑧ |④⑤⑥⑦|
⑩③②⑨ |⑧-⑨-|
⑤⑩⑨④ |⑩-⑪-|
62
口口口② |①-②③|
|④-⑤-|
口③口口
口口口④

口⑨口口
⑦口
口口⑧⑨ |⑥-⑦-|
⑥口⑨口 |⑧-⑨-|
63
⑤口①③ |--①-|
口口⑥① |--②③|
①②口口 |④-⑤-|
④①口⑦ |⑥-⑦-|
64
④口 |①-②③|
口口 |④-⑤-|
口口
口①②口

口口
口口口口
口口⑥⑦ |⑥-⑦-|
⑨口口口 |⑧-⑨-|
65
⑨⑨②⑧ |①-②③|
⑦③⑩④ |④⑤⑥⑦|
⑪⑥⑤⑩ |⑧-⑨-|
口⑪口① |⑩-⑪-|
66
口口⑨⑦ |①-②③|
⑥④口⑨ |④-⑤-|
⑧口③口 |⑥-⑦-|
②口⑤① |⑧-⑨-|
67
①口口口 |--①-|
口①口口 |--②-|

口口口口

口口口口
口口口口
⑥口口 |--③④|
口③④⑤ |⑤-⑥-|
68
④③②① |①-②-|
④③②① |③-④-|
⑥⑤⑤⑥ |--⑤-|
|--⑥-|
69
口口②④ |--①-|
⑤③⑧⑥ |②-③-|
⑨⑦⑩口 |④⑤⑥⑦|
⑪口① |⑧⑨⑩⑪|
70
口④口 |①-②③|
③口口 |④-⑤-|
口口①
口口①②

口口口

口⑥口口 |⑥-⑦-|
口⑧口口 |⑧-|

口口口口
口口
口口口口
口 |⑨-|
71
口口口 |①-②-|
口①
口口
口口口

⑧④口③
⑧口⑨⑤ |③-④⑤|
口⑥⑨ |⑥-⑦-|
口口⑦⑦ |⑧-⑨-|
72
口口⑤⑤ |①-②③|
⑦④口口 |④-⑤-|
①口③口 |⑥-⑦-|
②①⑥口

口口口
口口⑧
口口口
口口口口 |⑧-⑨-|
73
⑨④⑩ |①-②-|
口口⑤⑧ |③-④⑤|
口①⑥口 |⑥⑦⑧-|
口③⑦② |⑨-⑩-|
74
②口口口 |①-②③|
③①口口 |④⑤⑥-|
④①口⑥
⑤口口口

口⑫⑦口
口⑬⑧⑪
口口⑨口 |⑦⑧⑨⑩|
口口⑩口 |⑪-⑫⑬|
75
③口口② |①-②-|
口口⑥口 |③-④-|
口①⑦口 |⑤-⑥⑦|
④ |⑧-|

口口口口
⑨⑨口口
口口口口
口口口 |⑨-|
76
②③④⑤ |--①-|
口⑧⑧① |②③④⑤|
⑥⑦口① |⑥-⑦-|
⑦⑥口口 |--⑧-|
77
②①⑦③ |--①-|
①口⑥⑦ |②-③-|
⑤④⑥口 |④-⑤-|
④⑤口口 |⑥-⑦-|
78
口口④ |①-②③|
③口口 |④-⑤-|
口口①
口口①②

口口口

口⑥口口 |⑥-⑦-|
口⑧口口 |⑧-|

口口口口
口口
口口口口
口 |⑨-|
79
口口口 |①-②-|
口①
口口
口口口

⑧④口③
⑧口⑨⑤ |③-④⑤|
口⑥⑨ |⑥-⑦-|
口口⑦⑦ |⑧-⑨-|
80
口口⑤⑤ |①-②③|
口④口口 |④-⑤-|
①口③口
②①口口

口⑨口口
⑦口口⑧
口口口口 |⑥-⑦-|
口⑨⑥口 |⑧-⑨-|
81
口⑤④⑥ |--①-|
口口口口 |--②-|
②①①② |③-④-|
③⑤④③ |⑤-⑥-|
82
②口口口 |①-②③|
③①口口 |④⑤⑥-|
④①口⑥
⑤口口⑥

口⑫⑦⑪
口⑬⑧⑪
口口⑨口 |⑦⑧⑨⑩|
口口⑩口 |⑪-⑫⑬|
83
②口口口 |①-②-|
口口⑥口 |③-④-|
④①⑦⑤ |⑤-⑥⑦|
③ |⑧-|

口口口口
⑨⑨口口
口口口口
口口口 |⑨-|
84
⑤①⑩④ |--①②|
⑨⑨⑩⑧ |③④⑤⑥|
⑦口⑧⑥ |⑦-⑧-|
③⑦口② |⑨-⑩-|
85
⑩①⑪① |--①-|
口⑧口⑨ |②-③-|
⑥②⑦③ |④⑤⑥⑦|
②④③⑤ |⑧⑨⑩⑪|
86
口①口③ |①-②-|
①口③口 |--③-|
口②口口
②口口口

口口口口
⑧⑦口口
⑥口⑤口 |--④⑤|
口口口④ |⑥⑦⑧-|
87
②③④口 |--①-|
口口口口 |--②③|
⑤口口口 |④-⑤-|
①口①口




口口 |⑥-⑦-|
88
口口口口 |----|
口口口口 |----|
口口口口 |----|
口口口口 |----|
89
口口口口 |----|
口口口口 |----|
口口口口 |----|
口口口口 |----|
90
口口口口 |----|
口口口口 |----|
口口口口 |----|
口口口口 |----|
91
口口口口 |①---|
口 |----|
口口 |----|
口口 |----|

不確定度: 0

最終更新:2015年11月01日 03:07