Braid & Blade
SHAMDEL

EXTREME

Level: 9
BPM: 153
Notes: 746

1
口口口口 |------|
口口②口 |------|
口①口口 |------|
口口口口 |--①-②-|
2
③口⑤① |①---②-|
口⑥口口 |--③---|
口口②口 |④---⑤-|
口④口口 |--⑥---|
3
口口④口 |①---②-|
口⑥口口 |--③---|
①③⑤口 |④-----|
口口口② |--⑤-⑥-|
4
①④口⑥ |①---②-|
口口③口 |--③---|
口②口口 |④---⑤-|
⑤口口口 |--⑥---|
5
口口口口 |①-----|
口口口口 |------|
口①口口
口口口口

口口口口
口口口口
口③口口 |------|
口口②口 |--②-③-|
6
口④口② |①---②-|
①口⑥口 |--③---|
⑤口③口 |④---⑤-|
口口口口 |--⑥---|
7
①口口④ |①---②-|
口口口口 |--③---|
口③⑥口 |④-----|
口⑤②口 |--⑤-⑥-|
8
④口口口 |①---②-|
口口③① |--③---|
②口口口 |④-----|
口口口⑤ |--⑤---|
9
口口③口 |①-②-③-|
口口⑥② |④-⑤-⑥-|
口⑤口口
①①④口

⑦⑦口⑧
口⑨口口
口口⑩口 |⑦---⑧-|
⑪口口口 |⑨-⑩-⑪-|
10
口口口⑤ |①---②-|
口口③口 |③-④-⑤-|
②④口口
口口①①

⑥⑦⑧口
口⑨口口
口口⑩口 |⑥⑦⑧-⑨-|
⑪口口⑫ |⑩-⑪-⑫-|
11
⑧⑤⑦⑦ |①-②-③-|
①⑨④口 |④-⑤-⑥-|
⑥③⑩口 |⑦---⑧-|
口口②⑪ |⑨-⑩-⑪-|
12
口⑤④⑩ |①-②-③-|
③⑨⑩② |④-⑤-⑥-|
口⑦⑧⑥ |⑦-⑧-⑨-|
①①口口 |⑩-----|
13
口口③口 |①-②-③-|
口口⑥② |④-⑤-⑥-|
口⑤口口
①口④口

⑦口口⑧
口⑨口口
口口⑩口 |⑦---⑧-|
⑪口口口 |⑨-⑩-⑪-|
14
口口口⑤ |①---②-|
口口③口 |③-④-⑤-|
②④口口
口口口①

⑥⑦⑧口
口⑨口口
口口⑩口 |⑥⑦⑧-⑨-|
⑪口口⑫ |⑩-⑪-⑫-|
15
⑧⑤口⑦ |①-②-③-|
①⑨④口 |④-⑤-⑥-|
⑥③⑩口 |⑦---⑧-|
口口②⑪ |⑨-⑩-⑪-|
16
口⑤④口 |①-②-③-|
③口口② |④-⑤-⑥-|
口口口⑥
口①口口

口口口⑩
⑫⑨⑩口
口⑦⑧口 |⑦-⑧-⑨-|
口⑪口⑧ |⑩-⑪-⑫-|
17
④②口口 |①---②-|
口④口① |③-④---|
②口口③
口口①口

口口口⑥
⑦口⑥口
口口口口 |⑤---⑥-|
⑤⑤⑧⑧ |⑦-⑧---|
18
①口口口 |①---②-|
口②口口 |③-④---|
②①口③
④④口口

⑧⑤口口
⑤⑩⑨⑦
口口⑥口 |⑤-⑥-⑦-|
口口口口 |⑧-⑨-⑩-|
19
⑤⑤⑧③ |①---②-|
②⑦口⑧ |③-④---|
口②⑥① |⑤---⑥-|
④④①⑥ |⑦-⑧---|
20
口③口口 |①---②-|
③口口口 |--③-④-|
②口④①
口②①④

⑥口口⑥
口口⑤口
口⑤口⑧ |⑤---⑥-|
口口⑦口 |--⑦-⑧-|
21
⑧⑧②④ |①---②-|
③①口② |③-④---|
①⑥④⑦ |⑤---⑥-|
⑥口⑤⑤ |⑦-⑧---|
22
口口口④ |①---②-|
③①口口 |③-④---|
①口④口
口口②②

⑤⑥⑦口
口⑧⑨⑩
口口口口 |⑤-⑥-⑦-|
口口口口 |⑧-⑨-⑩-|
23
③⑤⑤④ |①---②-|
口口口口 |③-④---|
⑥①④⑥ |⑤-----|
①口②② |⑥-----|
24
②口口口 |①-----|
口①口③ |②-③-④-|
④口口口
口口口口

口口口口
口⑥口口
口口⑦口 |⑤---⑥-|
口口口⑤ |⑦-----|
25
⑦口⑥③ |①-②-③-|
口⑤②口 |④-⑤-⑥-|
④①⑩口 |⑦---⑧-|
⑨口口⑧ |⑨---⑩-|
26
口①口② |①-----|
①③⑥口 |②-③-④-|
口⑦口④ |⑤---⑥-|
⑤口口口 |⑦-----|
27
口⑧①⑨ |①-②-③-|
口②口④ |④-⑤-⑥-|
③⑩⑤口 |⑦---⑧-|
口⑥口⑦ |⑨---⑩-|
28
②口①口 |①-----|
口⑥①③ |②-③-④-|
④口⑦口 |⑤---⑥-|
口口口⑤ |⑦-----|
29
⑦口⑥③ |①-②-③-|
口⑤②口 |④-⑤-⑥-|
④①⑩口 |⑦---⑧-|
⑨口口⑧ |⑨---⑩-|
30
口①口② |①-----|
①③⑥口 |②-③-④-|
口⑦口④ |⑤---⑥-|
⑤口口口 |⑦-----|
31
口口①口 |①-②-③-|
口②口④ |④-⑤-⑥-|
③口⑤口 |⑦-----|
⑧⑥⑧⑦ |⑧-----|
32
③③口④ |①---②-|
口②②口 |--③-④-|
口口①①
口口口口

口口口口
口口口口
口⑧⑨⑩ |⑤-⑥-⑦-|
⑤⑥⑦口 |⑧-⑨-⑩-|
33
②③口⑤ |①---②-|
①④⑥口 |--③---|
口⑦口口 |④---⑤-|
⑧口口口 |⑥-⑦-⑧-|
34
②口口口 |①-②---|
口口口口 |③---④-|
口口③③
口④口①

⑧口口⑤
口口口口
⑥口口口 |⑤---⑥-|
⑥口口⑦ |--⑦-⑧-|
35
⑩⑩⑧⑨ |①-②-③-|
⑥⑤⑦口 |④-⑤-⑥-|
口④②③ |⑦-⑧-⑨-|
口口①口 |⑩-----|
36
口⑥口口 |①---②-|
④②⑦口 |③-④-⑤-|
口①①⑤ |⑥---⑦-|
⑧⑧③③ |⑧-----|
37
④口口⑤ |①---②-|
口②口⑦ |③-④-⑤-|
⑥①①口 |⑥---⑦-|
⑧⑧③③ |⑧-----|
38
口⑥口口 |①---②-|
④②⑦口 |③-④-⑤-|
口①①⑤ |⑥---⑦-|
⑧⑧③③ |⑧-----|
39
口④口口 |①-②-③-|
①口⑤口 |④-⑤-⑥-|
口②口⑥
口口③口

口口口⑩
口⑦口口
口⑨口口 |⑦-----|
⑧⑧口口 |⑧-⑨-⑩-|
40
口⑥口口 |①---②-|
④②⑦口 |③-④-⑤-|
口口①⑤ |⑥---⑦-|
⑧⑧③③ |⑧-----|
41
④口口⑤ |①---②-|
口②口口 |③-④-⑤-|
口①①口
口口③③

口口口口
口口口⑦
⑥⑧口口 |⑥---⑦-|
⑧口口口 |⑧-----|
42
⑦①②⑥ |①---②-|
⑨③④⑧ |③-④-⑤-|
口⑤口⑩ |⑥---⑦-|
⑦①②⑥ |⑧-⑨-⑩-|
43
口②①口 |①---②-|
④③③⑤ |--③---|
口③③口 |------|
口①②口 |--④-⑤-|
44
④②②② |①---②-|
④口③⑤ |--③---|
④⑥口⑤ |④---⑤-|
①①①⑤ |--⑥---|
45
口③②① |①-②-③-④-⑤|
⑥⑤④口 |-⑥-⑦-----|
口口口口
口口口⑦

口口⑪⑪
口口口口
口⑨⑩口 |⑧-⑨-⑩-|
⑧口⑫口 |⑪---⑫-|
46
①口口口 |①---②-|
口③口② |--③---|
①口口口
口口口②

⑥⑥⑤⑤
口口口口
口口口口 |④---⑤-|
④④口口 |--⑥---|
47
口口口⑦ |①---②-|
②④口口 |③-④-⑤-|
口⑩⑤③ |⑥---⑦-|
⑧⑥⑨① |⑧-⑨-⑩-|
48
⑤口②④ |①---②-|
①③⑥⑧ |③-④---|
⑤口④② |⑤---⑥-|
口⑦⑥⑧ |⑦-⑧---|
49
⑤口②⑧ |①---②-|
①③⑦口 |③-④---|
口⑥②④ |⑤-----|
①口④口 |⑥-⑦-⑧-|
50
口③②口 |①---②-|
⑤口口⑤ |③-④---|
①口②④ |⑤-----|
①⑥⑥④ |⑥-----|
51
口①②口 |①-②---|
口口③④ |③---④-|
③④口口
口口口口

口口口口
⑥⑤⑧口
口口⑥⑤ |--⑤---|
⑦口口口 |⑥-⑦-⑧-|
52
口口口③ |①---②-|
口口口口 |--③---|
口②口口
口①①口

⑤口口口
口口口口
④口口④ |④---⑤-|
口⑥口口 |--⑥---|
53
口③②① |①-②-③-④-⑤|
⑥⑤④口 |-⑥-⑦-----|
口口口口
口口口⑦

口口⑪⑪
口口口口
口⑨⑩口 |⑧-⑨-⑩-|
⑧口⑫口 |⑪---⑫-|
54
口口口口 |①---②-|
③③口② |--③---|
①口口口
口①口②

⑥⑥④④
口口口口
⑤口口口 |④---⑤-|
口⑤口口 |--⑥---|
55
口口口口 |①-②-③-|
口⑤③④ |④---⑤-|
口②口口
口口口①

口⑦⑥口
口口口口
口⑩口口 |⑥---⑦-|
⑧口⑨口 |⑧-⑨-⑩-|
56
⑤口②⑧ |①---②-|
①③⑥⑧ |③-④---|
⑤口④② |⑤---⑥-|
口⑦⑥④ |⑦-⑧---|
57
口口②口 |①---②-|
口③口口 |③-④---|
口①②④
①口口④

⑤⑥口口
口口⑦⑧
口⑩口口 |⑤-⑥-⑦-|
⑨口口口 |⑧-⑨-⑩-|
58
④④④① |①---②-|
②口口⑥ |--③---|
②口①③ |④---⑤-|
⑤⑤⑥③ |--⑥---|
59
⑦⑦口口 |①②③④⑤-|
口①②口 |⑥-⑦---|
⑤③④口
口口口⑥

口口口⑧
⑨⑪口口
口口⑫⑩ |⑧-⑨-⑩-|
口⑬口口 |⑪-⑫-⑬-|
60
②②口③ |①---②-|
⑥口口⑤ |③-④---|
⑥④口⑤ |⑤-----|
④口①① |⑥-----|
61
①口口① |①-----|
⑥⑦⑧⑨ |②-③-④-|
⑩①①口 |⑤-⑥-⑦-|
②③④⑤ |⑧-⑨-⑩-|
62
④⑤⑥口 |①-②-③-|
口口口口 |④-⑤-⑥-|
口①②③
口口口口

口口口口
口口⑩口
口⑨口口 |⑦-----|
⑦口⑧⑦ |⑧-⑨-⑩-|
63
①口口② |①---②-|
口③口口 |③-④-⑤-|
口口④口
⑤口口口

口口口⑩
口口⑧口
⑦⑨口口 |⑥---⑦-|
口口口⑥ |⑧-⑨-⑩-|
64
①②③口 |①②③-④-|
口④口口 |⑤-⑥-⑦-|
口口⑤口
⑥口口⑦

口⑫口口
⑧口⑪口
⑬⑩口口 |⑧-⑨-⑩-|
口口⑨口 |⑪-⑫-⑬-|
65
②⑩⑨① |①---②-|
⑧③口⑦ |③-④-⑤-|
口口④⑪ |⑥-⑦-⑧-|
口⑥口⑤ |⑨-⑩-⑪-|
66
口口口④ |①-②-③-|
口③④口 |④-----|
口①②口
口口口口

口口⑦口
口口⑩⑥
口⑨口口 |⑤-⑥-⑦-|
⑤口⑧口 |⑧-⑨-⑩-|
67
①口口② |①---②-|
口③口口 |③-④-⑤-|
口口④口
⑤口口口

口口口⑩
口口⑧口
⑦⑨口口 |⑥---⑦-|
口口口⑥ |⑧-⑨-⑩-|
68
①②③口 |①②③-④-|
口④口口 |⑤-⑥-⑦-|
口口⑤口
⑥口口⑦

口⑫口口
⑧口⑪口
⑬⑩口口 |⑧-⑨-⑩-|
口口⑨口 |⑪-⑫-⑬-|
69
②⑩⑨① |①---②-|
⑧③口⑦ |③-④-⑤-|
口口④⑪ |⑥-⑦-⑧-|
口⑥口⑤ |⑨-⑩-⑪-|
70
③口口④ |①-②-③-|
口③④口 |④-----|
口①②口 |------|
①口口② |------|

不確定度: 0

最終更新:2015年05月24日 19:13