Niflheimr
Qrispy Joybox

EXTREME

Level: 10
BPM: 186
Notes: 767

1
口口口口 |----|
口口口口 |----|
口口口口 |----|
口口口口 |----|
2
口口口③ |①---|
口口④口 |②---|
口⑤口口 |③---④-|
②①①口 |--⑤---|
3
①口口口 |①---②-|
口②⑥口 |--③---|
口⑤③口 |④---⑤-|
④口口口 |--⑥---|
4
口口④⑤ |①---②-|
口③⑥口 |③-④---|
口⑦②口 |⑤---⑥-|
口口口① |--⑦---|
5
①口口口 |①---②-|
口②口口 |--③---|
口口③口 |④---|
④口口口 |----|
6
口口口① |①---②-|
⑥口口口 |--③---|
口口口② |④---⑤-|
⑤④口③ |--⑥---|
7
①⑧⑦⑥ |①---②-|
口③④口 |③-④-⑤-|
口⑤②口 |⑥---⑦-|
口口口口 |--⑧---|
8
口口口口 |①---②-|
口口口口 |--③---|
①口③口
口②口口

口口口口
口口⑤④
⑥口口口 |④---⑤-|
口口口口 |--⑥---|
9
口⑥口④ |①---②-|
口①⑤③ |--③---|
口口②口 |④---⑤-|
口口口口 |--⑥---|
10
口口②口 |①---|
①口口口 |----|
口口口口 |②---|
①口①口 |----|
11
口①口① |①---|
口②口口 |----|
口口口① |②---|
口口口口 |----|
12
①口①口 |①---|
口②口② |----|
①口①口 |②---|
口②口② |----|
13
①口口口 |①---②-|
口⑤②口 |③-④-⑤-|
①③④口
口口口口

⑧口口⑥
⑦口口口
口口口口 |⑥---⑦-|
口口口口 |--⑧---|
14
口口①口 |①---|
口口口口 |----|
口口口口 |----|
口①口① |----|
15
口②①口 |①②③④|
④口口③ |⑤⑥⑦⑧|
⑥口口⑤
口⑧⑦口

⑬⑫⑪⑩
口口口口
口口⑨口 |⑨---|
口口口⑨ |⑩⑪⑫⑬|
16
口口口口 |①---|
口口口① |②---|
口⑦⑥② |③---|
口⑤④③ |④⑤⑥⑦|
17
④口⑤口 |①---②-|
口③①⑥ |--③---|
②口口口 |④---⑤-|
口口口口 |--⑥---|
18
口口口口 |①---②-|
③口①口 |--③---|
⑥④口② |④---⑤-|
口口⑤口 |--⑥---|
19
口口口口 |①---②-|
④⑤口口 |--③---|
口口②③ |④---⑤-|
口①口⑥ |--⑥---|
20
口口⑤④ |①---|
③口⑦⑥ |②---|
②口口口 |③---|
①口口口 |④⑤⑥⑦|
21
④⑤口口 |①---|
⑥⑦口口 |②---|
口②③① |③---|
口口口口 |④⑤⑥⑦|
22
口口口口 |①---|
口口⑤④ |②---|
①口⑦⑥ |③---|
口③②口 |④⑤⑥⑦|
23
口②③口 |①---|
④⑤口口 |②---|
⑥⑦口口 |③---|
口口口① |④⑤⑥⑦|
24
④⑤⑥⑦ |①---|
口口③口 |②---|
口口口口 |③---|
①口口② |④⑤⑥⑦|
25
⑯⑮⑭⑬ |①②③④|
⑨⑩⑪⑫ |⑤⑥⑦⑧|
⑧⑦⑥⑤ |⑨⑩⑪⑫|
①②③④ |⑬⑭⑮⑯|
26
⑬⑭⑮⑯ |①②③④|
⑨⑩⑪⑫ |⑤⑥⑦⑧|
⑧⑦⑥⑤ |⑨⑩⑪⑫|
①②③④ |⑬⑭⑮⑯|
27
⑯⑮⑭⑬ |①②③④|
⑫⑪⑩⑨ |⑤⑥⑦⑧|
⑧⑦⑥⑤ |⑨⑩⑪⑫|
④③②① |⑬⑭⑮⑯|
28
口口口口 |①---|
口⑧⑥④ |②---|
③⑨⑦⑤ |③-④⑤|
口②口① |⑥⑦⑧⑨|
29
③④②⑤ |①---②-|
①口口口 |--③---|
③口⑥④ |④---⑤-|
⑥②⑤口 |--⑥---|
30
⑦口口口 |①-②③|
②④⑥① |④⑤⑥-|
③⑤口口 |⑦---⑧-|
口⑨⑧① |--⑨---|
31
⑬③②① |①②③④|
⑭⑥⑤④ |⑤⑥⑦⑧|
⑮⑨⑧⑦ |⑨⑩⑪⑫|
⑯⑫⑪⑩ |⑬⑭⑮⑯|
32
④③②① |①---|
口口口口 |②---|
口③口口 |③---|
④⑤口口 |④-⑤-|
33
口口⑦⑥ |①-②-|
口⑧口口 |③-④-|
⑤④①口 |⑤-⑥-|
口口③② |⑦-⑧-|
34
口⑧⑦⑥ |①-②-|
①口口口 |③-④-|
⑤④③② |⑤-⑥-|
口口口口 |⑦-⑧-|
35
⑧⑦⑥⑤ |①-②-|
④③②① |③-④-|
⑧⑦⑥⑤ |⑤-⑥-|
④③②① |⑦-⑧-|
36
口口口口 |①---|
⑩②⑦⑥ |②---|
⑨⑧口⑤ |③④⑤⑥|
口③④① |⑦⑧⑨⑩|
37
口①②口 |①②--|
口口口口 |③---|
口口口口
③口口口

口⑪⑩口
口口⑨④
口⑧口⑤ |④⑤⑥⑦|
口⑦⑥口 |⑧⑨⑩⑪|
38
口口口口 |①②--|
①口口口 |③---|
②口口口
口口口③

口口口口
⑪口⑧⑦
⑩⑨口⑥ |④⑤⑥⑦|
口④⑤口 |⑧⑨⑩⑪|
39
口①②口 |①②--|
口口口口 |③---|
口口口口
③口口口

口⑪⑩口
口口⑨④
口⑧口⑤ |④⑤⑥⑦|
口⑦⑥口 |⑧⑨⑩⑪|
40
口口口③ |①②--|
①口口口 |③---|
②口口口
口口口口

④口口口
口口口口
⑧口口口 |④---|
⑦⑥⑤口 |⑤⑥⑦⑧|
41
口⑦⑥⑤ |①②③④|
①②口④ |⑤⑥⑦-|
口⑩③口 |⑧---⑨-|
口口⑨⑧ |--⑩---|
42
③口口口 |①---②-|
口②①口 |--③---|
⑧⑨⑩⑦ |④⑤⑥⑦|
④⑤⑥⑪ |⑧⑨⑩⑪|
43
⑤⑥⑦④ |①②③④|
①②③⑧ |⑤⑥⑦⑧|
⑬⑭⑮⑫ |⑨⑩⑪⑫|
⑨⑩⑪⑯ |⑬⑭⑮⑯|
44
⑧⑦⑥④ |①②③④|
①②③⑤ |⑤⑥⑦⑧|
⑯⑮⑭⑫ |⑨⑩⑪⑫|
⑨⑩⑪⑬ |⑬⑭⑮⑯|
45
⑧⑦⑥④ |①②③④|
①②③⑤ |⑤⑥⑦⑧|
⑯⑮⑭⑫ |⑨⑩⑪⑫|
⑨⑩⑪⑬ |⑬⑭⑮⑯|
46
⑧⑦⑥④ |①②③④|
①②③⑤ |⑤⑥⑦⑧|
⑯⑮⑭⑫ |⑨⑩⑪⑫|
⑨⑩⑪⑬ |⑬⑭⑮⑯|
47
⑧⑦⑥④ |①②③④|
①②③⑤ |⑤⑥⑦⑧|
⑬⑭⑮⑨ |⑨⑩⑪⑫|
⑫⑪⑩⑯ |⑬⑭⑮⑯|
48
④③②① |①---②-|
口①⑥⑤ |--③---|
口口口口 |④---⑤-|
口口口口 |--⑥---|
49
口口口口 |①---②-|
口口口口 |--③---|
⑤⑥①口 |④---⑤-|
①②③④ |--⑥---|
50
④③②① |①---②-|
口①⑥⑤ |--③---|
口口口口 |④---⑤-|
口口口口 |--⑥---|
51
口口口口 |①---②-|
口⑨⑧⑥ |--③---|
⑤⑦①口 |④---⑤-|
①②③④ |---⑥⑦-⑧--⑨--|
52
④③②① |①---②-|
①口⑦⑤ |--③---|
⑥⑧⑨① |④---⑤-|
口口口口 |---⑥⑦-⑧--⑨--|
53
口口口口 |①---②-|
①⑨⑧⑥ |--③---|
⑤⑦口① |④---⑤-|
①②③④ |---⑥⑦-⑧--⑨--|
54
④③②① |①---②-|
①口⑦⑤ |--③---|
⑥⑧⑨① |④---⑤-|
口口口④ |---⑥⑦-⑧--⑨--|
55
口口口口 |①---②-|
①口口④ |--③---|
⑤⑥口① |④---⑤-|
①②③④ |--⑥---|
56
①①①① |①---|
口口口口 |----|
口口口口 |----|
口口口口 |----|
57
口②①口 |①②③④|
④口口③ |⑤⑥⑦⑧|
⑥口口⑤
口⑧⑦口

⑬⑫⑪⑩
口口口口
口口⑨口 |⑨---|
口口口⑨ |⑩⑪⑫⑬|
58
⑨口⑦⑧ |①---|
口⑨⑥口 |②③④⑤|
口⑤④口 |⑥-⑦-|
①③②口 |⑧-⑨-|
59
⑨②口口 |①-②-|
②口口① |③-④-|
④⑥⑦③ |⑤-⑥⑦|
⑧④口⑤ |⑧-⑨-|
60
口③②① |①---|
口⑤④口 |②③④⑤|
⑨口⑥口 |⑥-⑦-|
口⑨⑦⑧ |⑧-⑨-|
61
④口⑨⑤ |①-②-|
口④口③ |③-④-|
口②口① |⑤-⑥⑦|
②⑧⑦⑥ |⑧-⑨-|
62
⑨⑦⑩⑧ |①-②-③-|
③⑪④⑫ |④-⑤-⑥-|
⑤①⑥② |⑦-⑧-⑨-|
口口口口 |⑩-⑪-⑫-|
63
⑨⑦⑩⑧ |①-②-③-|
口⑪口⑫ |④-⑤-⑥-|
⑤口⑥口 |⑦-⑧-⑨-|
①③②④ |⑩-⑪-⑫-|
64
⑫⑪⑩⑨ |①②③④|
⑬⑭⑮⑯ |⑤⑥⑦⑧|
⑧⑦⑥⑤ |⑨⑩⑪⑫|
①②③④ |⑬⑭⑮⑯|
65
⑫⑪⑩⑨ |①②③④|
⑯⑮⑭⑬ |⑤⑥⑦⑧|
⑧⑦⑥⑤ |⑨⑩⑪⑫|
①②③④ |⑬⑭⑮⑯|
66
口⑨⑦⑥ |①---|
口口⑧口 |②③④⑤|
⑨⑤④口 |⑥-⑦-|
口③②① |⑧-⑨-|
67
⑥⑦⑧口 |①-②-|
④②⑨① |③-④-|
口口口③ |⑤-⑥⑦|
②④口⑤ |⑧-⑨-|
68
⑥⑦⑨口 |①---|
口⑧口口 |②③④⑤|
口④⑤⑨ |⑥-⑦-|
①②③口 |⑧-⑨-|
69
⑦口⑧⑥ |①-②-|
①口②④ |③-④-|
③口口口 |⑤-⑥⑦|
⑤⑨④② |⑧-⑨-|
70
口⑥口口 |①-②-③-|
④口①口 |④-⑤-⑥-|
口②⑤口
口口口③

⑩口口口
口口⑪⑦
⑧⑫口口 |⑦-⑧-⑨-|
口口⑨口 |⑩-⑪-⑫-|
71
⑩⑧⑦⑥ |①②③④|
⑨⑪⑫⑬ |⑤⑥⑦⑧|
口口④⑤ |⑨⑩⑪⑫|
②③口① |⑬---|
72
⑯⑮⑭⑫ |①②③④|
⑨⑩⑪⑬ |⑤⑥⑦⑧|
⑧⑦⑥④ |⑨⑩⑪⑫|
①②③⑤ |⑬⑭⑮⑯|
73
⑯⑮⑭⑫ |①②③④|
⑨⑩⑪⑬ |⑤⑥⑦⑧|
⑧⑦⑥④ |⑨⑩⑪⑫|
①②③⑤ |⑬⑭⑮⑯|
74
口口口口 |①②③④|
口口口口 |----|
口④③口 |----|
口①①② |----|
75
②①①口 |①②③④|
口③④口 |----|
口口口口 |----|
口口口口 |----|
76
口①⑤口 |①②③④|
⑥⑤①口 |----|
⑤⑦⑧① |⑤⑥⑦⑧|
②③④口 |----|
77
①①口口 |①-②-|
口口口口 |③-④-|
口口口口
④③②①

⑫口⑤口
⑨⑩⑪⑤
⑤⑥⑦⑧ |⑤⑥⑦⑧|
口口口口 |⑨⑩⑪⑫|
78
口①口口 |①②③-|
口口口口 |----|
口口口口 |----|
口③②① |----|

不確定度: 0

最終更新:2015年07月26日 19:12